.
Авторизация | Регистрация
Хочешь лучшие торренты? Добавь свой email!
Добавить
» » Водитель / The Driver (1978) BDRip 720p от MediaClub | P, A скачать через торрент бесплатно




    Водитель / The Driver (1978) BDRip 720p от MediaClub | P, A скачать через торрент бесплатно

    Опубликовал: Админ | Дата: 27-02-2015, 11:09 | Просмотров: 299



    Детально о кино
    Русское название: Водитель
    Русское название в мировом прокате: The Driver
    Создали в: 1978
    Категория жанра: Боевик, триллер, драма, криминал
    Главный режиссер: Уолтер Хилл
    Актеры: Райан О`Нил, Брюс Дерн, Изабель Аджани, Рони Блейкли, Мэтт Кларк, Феличе Орланди, Джозеф Уолш, Руди Рамос, Денни Мако, Фрэнк Бруно

    Сюжет фильма:
    Неприятности аса — водителя и угонщика автомобилей начинаются в тот момент, когда он становится соучастником ограбления банка. Водитель в бегах ведет настоящую дуэль с беспощадным полицейским, расставляющим ловушки на пути беглеца. Знакомство с прекрасной, но непредсказуемой в поступках женщиной — азартным игроком, которую во всей этой истории привлекает не результат, а участие, усложняет жизнь водителя.



    Снималось в: США, Великобритания / 20th Century Fox Film Corporation, EMI Films Ltd.
    Время просмотра: 01:29:21
    Перевод текста: Профессиональный многоголосый, авторский

    Файл
    Кодек для видео: x264
    Качество фильма: BDRip 720p
    Информация о видео: MPEG-4 AVC, 7000 Кбит/с, 1280x690, 23.976 кадр/с
    Информация о звуке #1: Русский (АС3, 2 ch, 192 Кбит/с) / Профессиональный многоголосый (Нева-1)
    Информация о звуке #2: Русский (АС3, 2 ch, 192 Кбит/с) / Авторский одноголосый (Либергал)
    Информация о звуке #3: Русский (АС3, 2 ch, 192 Кбит/с) / Авторский одноголосый (Михалев)
    Информация о звуке #4: Английский (DTS, 1 ch, 755 Кбит/с)
    Субтитры: Русские, английские

    Семпл


    MI
    Format : Matroska
    Format version : Version 4 / Version 2
    File size : 5.21 GiB
    Duration : 1h 29mn
    Overall bit rate : 8 343 Kbps
    Movie name : -=MediaClub-Odessit=-
    Encoded date : UTC 2013-10-24 08:32:42
    Writing application : mkvmerge v6.2.0 (;Promised Land;) built on Apr 28 2013 12:22:01
    Writing library : libebml v1.3.0 libmatroska v1.4.0

    Video
    ID : 1
    Format : AVC
    Format/Info : Advanced Video Codec
    Format profile : High@L4.1
    Format settings, CABAC : Yes
    Format settings, ReFrames : 9 frames
    Codec ID : V_MPEG4/ISO/AVC
    Duration : 1h 29mn
    Bit rate : 7 000 Kbps
    Width : 1 280 pixels
    Height : 690 pixels
    Display aspect ratio : 1.855
    Frame rate : 23.976 fps
    Color space : YUV
    Chroma subsampling : 4:2:0
    Bit depth : 8 bits
    Scan type : Progressive
    Bits/(Pixel*Frame) : 0.331
    Stream size : 4.27 GiB (82%)
    Writing library : x264 core 133 r2334 a3ac64b
    Encoding settings : cabac=1 / ref=9 / deblock=1:-3:-3 / analyse=0x3:0x133 / me=umh / subme=11 / psy=1 / psy_rd=1.00:0.20 / mixed_ref=1 / me_range=48 / chroma_me=1 / trellis=2 / 8x8dct=1 / cqm=0 / deadzone=21,11 / fast_pskip=0 / chroma_qp_offset=-3 / threads=6 / lookahead_threads=1 / sliced_threads=0 / nr=0 / decimate=0 / interlaced=0 / bluray_compat=0 / constrained_intra=0 / bframes=9 / b_pyramid=2 / b_adapt=2 / b_bias=0 / direct=3 / weightb=1 / open_gop=0 / weightp=2 / keyint=240 / keyint_min=23 / scenecut=40 / intra_refresh=0 / rc=2pass / mbtree=0 / bitrate=7000 / ratetol=1.0 / qcomp=0.60 / qpmin=0 / qpmax=69 / qpstep=4 / cplxblur=20.0 / qblur=0.5 / ip_ratio=1.40 / pb_ratio=1.30 / aq=1:1.00
    Language : English

    Audio #1
    ID : 2
    Format : AC-3
    Format/Info : Audio Coding 3
    Mode extension : CM (complete main)
    Codec ID : A_AC3
    Duration : 1h 29mn
    Bit rate mode : Constant
    Bit rate : 192 Kbps
    Channel(s) : 2 channels
    Channel positions : Front: L R
    Sampling rate : 48.0 KHz
    Bit depth : 16 bits
    Compression mode : Lossy
    Stream size : 123 MiB (2%)
    Title : MVO Нева-1
    Language : Russian

    Audio #2
    ID : 3
    Format : AC-3
    Format/Info : Audio Coding 3
    Mode extension : CM (complete main)
    Codec ID : A_AC3
    Duration : 1h 29mn
    Bit rate mode : Constant
    Bit rate : 192 Kbps
    Channel(s) : 2 channels
    Channel positions : Front: L R
    Sampling rate : 48.0 KHz
    Bit depth : 16 bits
    Compression mode : Lossy
    Stream size : 123 MiB (2%)
    Title : AVO Либергал
    Language : Russian

    Audio #3
    ID : 4
    Format : AC-3
    Format/Info : Audio Coding 3
    Mode extension : CM (complete main)
    Codec ID : A_AC3
    Duration : 1h 29mn
    Bit rate mode : Constant
    Bit rate : 192 Kbps
    Channel(s) : 2 channels
    Channel positions : Front: L R
    Sampling rate : 48.0 KHz
    Bit depth : 16 bits
    Compression mode : Lossy
    Stream size : 123 MiB (2%)
    Title : AVO Михалев
    Language : Russian

    Audio #4
    ID : 5
    Format : DTS
    Format/Info : Digital Theater Systems
    Codec ID : A_DTS
    Duration : 1h 29mn
    Bit rate mode : Constant
    Bit rate : 755 Kbps
    Channel(s) : 1 channel
    Channel positions : Front: C
    Sampling rate : 48.0 KHz
    Bit depth : 24 bits
    Compression mode : Lossy
    Stream size : 482 MiB (9%)
    Language : English

    Text #1
    ID : 6
    Format : UTF-8
    Codec ID : S_TEXT/UTF8
    Codec ID/Info : UTF-8 Plain Text
    Language : Russian

    Text #2
    ID : 7
    Format : UTF-8
    Codec ID : S_TEXT/UTF8
    Codec ID/Info : UTF-8 Plain Text
    Language : English


    x264 log
    ---Information 24.10.2013 11:47:16 x264 info: frame I:798 Avg QP:18.51 size:149996
    ---Information 24.10.2013 11:47:16 x264 info: frame P:25378 Avg QP:21.08 size: 60329
    ---Information 24.10.2013 11:47:16 x264 info: frame B:102368 Avg QP:22.87 size: 29690

    Скриншоты для ознакомления


    Релиз подготовил:
    Размер скачиваемого торрента: 5.21 GB (5593114431 Bytes)

    Водитель / The Driver (1978) BDRip 720p от MediaClub | P, A скачать через торрент бесплатно
    загрузка...
    Рейтинг →
     (голосов: 1, оценка 5/5, голосовать можно 1 раз )

    Другие торренты по теме:

  • Водитель / The Driver (1978) BDRip by msltel | P, A
  • Водитель / The Driver (1978) BDRip 1080p by msltel | P, A скачать через торрент бесплатно
  • Водитель (1-3 серии из 3) / The Driver скачать через торрент бесплатно
  • Требуется водитель / Whos Driving Doug (2016) WEB-DLRip | L2


    • Комментарии (0):

      Информация

      Информация

        Посетители, находящиеся в группе Гости, не могут оставлять комментарии в данной новости.

        ↓ Меню



        ↓ Опрос

        А Вы добавили сайт в закладки?
        Да
        Не


        Top 10 за месяц (Фильмы)