.
Авторизация | Регистрация
Хочешь лучшие торренты? Добавь свой email!
Добавить
» » Смитти / Smitty (2012) HDTVRip от MediaClub | P скачать через торрент бесплатно




    Смитти / Smitty (2012) HDTVRip от MediaClub | P скачать через торрент бесплатно

    Опубликовал: Админ | Дата: 27-02-2015, 11:09 | Просмотров: 340



    Детально о кино
    Русское название: Смитти
    Русское название в мировом прокате: Smitty
    Создали в: 2012
    Категория жанра: Драма, семейный
    Главный режиссер: Дэвид М. Эванс
    Актеры: Брэндон Тайлер Расселл (Бен Баррет), Мира Сорвино, Питер Фонда, Луис Госсет мл., Джейсон Лондон, Бу Бу Стюарт, Лолита Давидович, Тори Вайз, Дэйзи Хэмилтон, Гэбриэлль Буи

    Сюжет фильма:
    Вредного тринадцатилетнего пацана посылают на всё лето в деревню к дедушке. Дед — упрямый старый простак, не очень рад видеть своего внука. Бен знакомится с собакой, которую выгнали из дома, потому что её прежние хозяева, просто не могут позволить себе прокормить и поддержать домашнее животное. С помощью собаки Бен изучает важность дружбы, семьи и ответственности. И это лето станет самым незабываемым в его жизни.



    Снималось в: США
    Киностудия: TriCoast Studios
    Время просмотра: 01:30:09
    Перевод текста: Профессиональный многоголосый (НТВ )

    Файл
    Кодек для видео: XviD
    Качество фильма: HDTVRip
    Информация о видео: 1707 Кбит/с, 720x400, 25.000 кадр/с
    Информация о звуке: Русский (АС3, 6 ch, 448 Кбит/с)

    Семпл

    Скриншоты для ознакомления

    MI
    Общее
    Полное имя : Smitti.2012.HDTVRip.MediaClub.avi
    Формат : AVI
    Формат/Информация : Audio Video Interleave
    Размер файла : 1,36 Гбайт
    Продолжительность : 1 ч. 30 м.
    Общий поток : 2164 Кбит/сек
    Название фильма : MediaClub
    Программа кодирования : VirtualDubMod 1.5.10.2 (build 2540/release)
    Библиотека кодирования : VirtualDubMod build 2540/release

    Видео
    Идентификатор : 0
    Формат : MPEG-4 Visual
    Профиль формата : Advanced Simple@L5
    Параметр BVOP формата : 2
    Параметр QPel формата : Нет
    Параметр GMC формата : Без точки перехода
    Параметр матрицы формата : Default (MPEG)
    Идентификатор кодека : XVID
    Идентификатор кодека/Подсказка : XviD
    Продолжительность : 1 ч. 30 м.
    Битрейт : 1707 Кбит/сек
    Ширина : 720 пикселей
    Высота : 400 пикселей
    Соотношение сторон : 16:9
    Частота кадров : 25,000 кадров/сек
    Цветовое пространство : YUV
    Субдискретизация насыщенности : 4:2:0
    Битовая глубина : 8 бит
    Тип развёртки : Прогрессивная
    Метод сжатия : С потерями
    Бит/(Пиксели*Кадры) : 0.237
    Размер потока : 1,07 Гбайт (79%)
    Библиотека кодирования : XviD 65

    Аудио
    Идентификатор : 1
    Формат : AC-3
    Формат/Информация : Audio Coding 3
    Расширение режима : CM (complete main)
    Параметр Endianness формата : Big
    Идентификатор кодека : 2000
    Продолжительность : 1 ч. 30 м.
    Вид битрейта : Постоянный
    Битрейт : 448 Кбит/сек
    Каналы : 6 каналов
    Расположение каналов : Front: L C R, Side: L R, LFE
    Частота : 48,0 КГц
    Битовая глубина : 16 бит
    Метод сжатия : С потерями
    Размер потока : 289 Мбайт (21%)
    Выравнивание : Разделение по промежуткам
    Продолжительность промежутка : 40 мс. (1,00 видеокадр)
    Время предзагрузки промежутка : 500 мс.


    Релиз подготовил:
    Залил: poja
    Размер скачиваемого торрента: 1.36 GB (1463488512 Bytes)

    Смитти / Smitty (2012) HDTVRip от MediaClub | P скачать через торрент бесплатно
    загрузка...
    Рейтинг →
     (голосов: 1, оценка 3/5, голосовать можно 1 раз )

    Другие торренты по теме:

  • Смитти / Smitty (2012) HDRip | L
  • Смитти / Smitty (2012) HDTVRip-AVC от MediaClub | P скачать через торрент бесплатно
  • Смитти / Smitty (2012) BDRip 720p от ivandubskoj | P
  • Смитти / Smitty (2012) HDRip от MegaPeer | P
  • Смитти / Smitty (2012) BDRip 1080p от ivandubskoj | P
  • Смитти / Smitty (2012) BDRemux 1080p | P


    • Комментарии (0):

      Информация

      Информация

        Посетители, находящиеся в группе Гости, не могут оставлять комментарии в данной новости.

        ↓ Меню



        ↓ Опрос

        А Вы добавили сайт в закладки?
        Да
        Не


        Top 10 за месяц (Фильмы)