.
Авторизация | Регистрация
Хочешь лучшие торренты? Добавь свой email!
Добавить
» » Крутая Джорджия / Georgia Rule (2007) WEB-DL 720p | D скачать через торрент бесплатно




    Крутая Джорджия / Georgia Rule (2007) WEB-DL 720p | D скачать через торрент бесплатно

    Опубликовал: Админ | Дата: 27-02-2015, 11:09 | Просмотров: 481



    Детально о кино
    Русское название: Крутая Джорджия
    Русское название в мировом прокате: Georgia Rule
    Создали в: 2007
    Категория жанра: Драма, мелодрама, комедия
    Главный режиссер: Гэрри Маршалл
    Актеры: Джейн Фонда, Линдси Лохан, Фелисити Хаффмен, Дермот Малруни, Кэри Элвис, Гаррет Хедлунд, Гектор Элизондо, Дилан МакЛафлин, Захари Гордан, Лори Меткаф

    Сюжет фильма:
    Избалованную городскую девчонку на лето отправляют в ссылку к строгой бабушке в штат Айдахо. Оказавшись в захолустье, она не собирается скучать и быстро ставит провинциальный городишко Халл на уши. Хамит бабушке, безуспешно домогается до местного доктора и соблазняет невинного юношу, собиравшегося стать мормонским проповедником. Причиной столь вызывающего поведения оказывается тяжелая детская травма. Девушка неожиданно признается, что с двенадцати лет ее регулярно насиловал отчим. Однако никто не может с уверенностью сказать, правда это или всего лишь очередная жестокая попытка насолить окружающим…




    Снималось в: США
    Киностудия: Morgan Creek Productions, Trust Me
    Время просмотра: 01:52:37
    Перевод текста: Дублированный

    Файл
    Кодек для видео: MPEG-4 AVC
    Качество фильма: WEB-DL (720p)
    Информация о видео: 3902 Кбит/с, 1280х546
    Информация о звуке: Русский (DTS, 6 ch, 755 Кбит/с), русский, английский (АС3, 6 ch, 384 Кбит/с)
    Субтитры: Русские, английские

    Релиз
    Исходник от HDB

    Аудио: Russian: AC3, 6 ch, 384 kbps, 48 kHz | дублированный DVD9 NTSC
    Аудио: Russian: DTS, 6 ch, 755 kbps, 48 kHz | дублированный DVD9 NTSC
    Аудио: English: AC3, 6 ch, 384 kbps, 48 kHz | оригинал i tunes

    Субтитры: Русские, английские

    За синхронизацию дубляжа и всех субтитров Все благодарности уходят Respector

    Инфо-файл
    Формат : Matroska
    Версия формата : Version 4 / Version 2
    Размер файла : 4,35 Гбайт
    Продолжительность : 1 ч. 52 м.
    Общий поток : 5535 Кбит/сек
    Название фильма : Georgia.Rule.2007.WEB-DL.(720p)
    Дата кодирования : UTC 2013-10-24 18:11:53
    Программа кодирования : mkvmerge v6.3.0 (;You can;t stop me!;) built on Jun 28 2013 20:09:41
    Библиотека кодирования : libebml v1.3.0 libmatroska v1.4.0

    Видео
    Идентификатор : 1
    Формат : AVC
    Формат/Информация : Advanced Video Codec
    Профиль формата : High@L3.1
    Параметр CABAC формата : Нет
    Параметр ReFrames формата : 2 кадра
    Идентификатор кодека : V_MPEG4/ISO/AVC
    Продолжительность : 1 ч. 52 м.
    Битрейт : 3902 Кбит/сек
    Ширина : 1280 пикселей
    Высота : 546 пикселей
    Соотношение сторон : 2,35:1
    Режим частоты кадров : Постоянный
    Частота кадров : 23,976 кадра/сек
    Цветовое пространство : YUV
    Субдискретизация насыщенности : 4:2:0
    Битовая глубина : 8 бит
    Тип развёртки : Прогрессивная
    Бит/(Пиксели*Кадры) : 0.233
    Размер потока : 3,07 Гбайт (71%)
    Заголовок : Georgia.Rule.2007.WEB-DL.(720p)
    Язык : English
    Default : Да
    Forced : Нет
    Основные цвета : BT.709
    Характеристики трансфера : BT.709
    Коэффициенты матрицы : BT.709

    Аудио #1
    Идентификатор : 2
    Формат : AC-3
    Формат/Информация : Audio Coding 3
    Расширение режима : CM (complete main)
    Параметр Endianness формата : Big
    Идентификатор кодека : A_AC3
    Продолжительность : 1 ч. 52 м.
    Вид битрейта : Постоянный
    Битрейт : 384 Кбит/сек
    Каналы : 6 каналов
    Расположение каналов : Front: L C R, Side: L R, LFE
    Частота : 48,0 КГц
    Битовая глубина : 16 бит
    Метод сжатия : С потерями
    Размер потока : 309 Мбайт (7%)
    Язык : English
    Default : Нет
    Forced : Нет

    Аудио #2
    Идентификатор : 3
    Формат : DTS
    Формат/Информация : Digital Theater Systems
    Режим : 16
    Параметр Endianness формата : Big
    Идентификатор кодека : A_DTS
    Продолжительность : 1 ч. 52 м.
    Вид битрейта : Постоянный
    Битрейт : 755 Кбит/сек
    Каналы : 6 каналов
    Расположение каналов : Front: L C R, Side: L R, LFE
    Частота : 48,0 КГц
    Битовая глубина : 24 бит
    Метод сжатия : С потерями
    Размер потока : 608 Мбайт (14%)
    Заголовок : Дублированный (DSVD9 NTSC)
    Язык : Russian
    Default : Да
    Forced : Нет

    Аудио #3
    Идентификатор : 4
    Формат : AC-3
    Формат/Информация : Audio Coding 3
    Расширение режима : CM (complete main)
    Параметр Endianness формата : Big
    Идентификатор кодека : A_AC3
    Продолжительность : 1 ч. 52 м.
    Вид битрейта : Постоянный
    Битрейт : 384 Кбит/сек
    Каналы : 6 каналов
    Расположение каналов : Front: L C R, Side: L R, LFE
    Частота : 48,0 КГц
    Битовая глубина : 16 бит
    Метод сжатия : С потерями
    Размер потока : 309 Мбайт (7%)
    Заголовок : Дублированный (DSVD9 NTSC)
    Язык : Russian
    Default : Нет
    Forced : Нет

    Текст #1
    Идентификатор : 5
    Формат : UTF-8
    Идентификатор кодека : S_TEXT/UTF8
    Идентификатор кодека/Информация : UTF-8 Plain Text
    Заголовок : Русские
    Язык : Russian
    Default : Да
    Forced : Нет

    Текст #2
    Идентификатор : 6
    Формат : UTF-8
    Идентификатор кодека : S_TEXT/UTF8
    Идентификатор кодека/Информация : UTF-8 Plain Text
    Заголовок : Английские
    Язык : English
    Default : Нет
    Forced : Нет

    Скриншоты для ознакомления


    Залил: StarbirS
    Размер скачиваемого торрента: 4.35 GB (4675277202 Bytes)

    Крутая Джорджия / Georgia Rule (2007) WEB-DL 720p | D скачать через торрент бесплатно
    загрузка...
    Рейтинг →
     (голосов: 1, оценка 3/5, голосовать можно 1 раз )

    Другие торренты по теме:

  • Крутая Джорджия / Georgia Rule (2007) WEB-DLRip-AVC | D скачать через торрент бесплатно
  • Крутая Джорджия / Georgia Rule (2007) DVDRip от Scarabey | D скачать через торрент бесплатно
  • Крутая Джорджия / Georgia Rule (2007) DVDRip от Scarabey | Р


    • Комментарии (0):

      Информация

      Информация

        Посетители, находящиеся в группе Гости, не могут оставлять комментарии в данной новости.

        ↓ Меню



        ↓ Опрос

        А Вы добавили сайт в закладки?
        Да
        Не


        Top 10 за месяц (Фильмы)