.
Авторизация | Регистрация
Хочешь лучшие торренты? Добавь свой email!
Добавить
» » Американский жиголо / American Gigolo (1980) BDRemux 1080p от MediaClub | P скачать торрент бесплатно




    Американский жиголо / American Gigolo (1980) BDRemux 1080p от MediaClub | P скачать торрент бесплатно

    Опубликовал: Админ | Дата: 27-02-2015, 11:09 | Просмотров: 406



    Детально о кино
    Русское название: Американский жиголо
    Русское название в мировом прокате: American Gigolo
    Создали в: 1980
    Категория жанра: Триллер, драма, детектив
    Главный режиссер: Пол Шредер
    Актеры: Ричард Гир, Лоурен Хаттон, Гектор Элизондо, Нина Ван Палландт, Билл Дьюк, Брайан Дейвис, К. Каллэн, Том Стюарт, Патриция Карр, Дэвид Крайер, Кэрол Брюс, МакДональд Кэри

    Сюжет: Второго такого не найти! Джулиан Кэй - единственный и неповторимый! Он легко изъясняется на шести языках. Он - изысканный, начитанный собеседник. Он - чувственен и интеллигентен. Он безмерно элегантен и немыслимо привлекателен. Ни одна женщина не в силах устоять перед его чарами. Что, в сущности, и требуется Джулиану для его повседневной работы, так как он - профессиональный соблазнитель. Причем - самый высокооплачиваемый в Голливуде. Его сердце защищено ледяным панцирем от лишних нежных чувств, которые внезапно могут возникнуть на службе или вне ее - работе не должно мешать ничто! Казалось бы, в жизни прекрасного жиголо все будет прекрасно. Но вот одну из клиенток Джулиана находят мертвой, а самого его начинают подозревать в убийстве.




    Снималось в: США
    Киностудия: Paramount Pictures
    Время просмотра: 01:56:35
    Перевод текста: Профессиональный многоголосый

    Файл
    Качество фильма: BDRemux 1080p
    Информация о видео: MPEG-4 AVC, 34977 Кбит/с, 1920x1080, 23.976 кадр/с
    Информация о звуке #1: Русский (AC3, 6 ch, 448 Кбит/с) / Профессиональный многоголосый
    Информация о звуке #2: Русский (AC3, 2 ch, 192 Кбит/с) / Профессиональный многоголосый (СТС)
    Информация о звуке #3: Английский (DTS-HD MA, 6 ch, 2723 Кбит/с)
    Субтитры: Русские, английские

    Скриншоты для ознакомления


    MI
    Общее
    Уникальный идентификатор : 243067276080584306258785703397711957503 (0xB6DD0DF7043D9E48B4D01A2165784DFF)
    Полное имя : D:Mои раздачиAmerican.Gigolo.1980.BDRemux.(1080p)-MediaClub.mkv
    Формат : Matroska
    Версия формата : Version 4 / Version 2
    Размер файла : 31,0 Гбайт
    Продолжительность : 1 ч. 56 м.
    Режим общего битрейта : Переменный
    Общий поток : 38,1 Мбит/сек
    Название фильма : -=MediaClub=-
    Дата кодирования : UTC 2013-10-22 10:35:04
    Программа кодирования : mkvmerge v6.1.0 (;Old Devil;) built on Mar 4 2013 09:10:42
    Библиотека кодирования : libebml v1.3.0 libmatroska v1.4.0

    Видео
    Идентификатор : 1
    Формат : AVC
    Формат/Информация : Advanced Video Codec
    Профиль формата : High@L4.1
    Параметр CABAC формата : Да
    Параметр ReFrames формата : 4 кадра
    Идентификатор кодека : V_MPEG4/ISO/AVC
    Продолжительность : 1 ч. 56 м.
    Вид битрейта : Переменный
    Максимальный битрейт : 37,0 Мбит/сек
    Ширина : 1920 пикселей
    Высота : 1080 пикселей
    Соотношение сторон : 16:9
    Режим частоты кадров : Постоянный
    Частота кадров : 23,976 кадра/сек
    Цветовое пространство : YUV
    Субдискретизация насыщенности : 4:2:0
    Битовая глубина : 8 бит
    Тип развёртки : Прогрессивная
    Заголовок : -=MediaClub=-
    Default : Да
    Forced : Да

    Аудио #1
    Идентификатор : 2
    Формат : AC-3
    Формат/Информация : Audio Coding 3
    Расширение режима : CM (complete main)
    Параметр Endianness формата : Big
    Идентификатор кодека : A_AC3
    Продолжительность : 1 ч. 56 м.
    Вид битрейта : Постоянный
    Битрейт : 448 Кбит/сек
    Каналы : 6 каналов
    Расположение каналов : Front: L C R, Side: L R, LFE
    Частота : 48,0 КГц
    Битовая глубина : 16 бит
    Метод сжатия : С потерями
    Размер потока : 374 Мбайт (1%)
    Заголовок : MVO
    Язык : Russian
    Default : Да
    Forced : Да

    Аудио #2
    Идентификатор : 3
    Формат : AC-3
    Формат/Информация : Audio Coding 3
    Расширение режима : CM (complete main)
    Параметр Endianness формата : Big
    Идентификатор кодека : A_AC3
    Продолжительность : 1 ч. 56 м.
    Вид битрейта : Постоянный
    Битрейт : 192 Кбит/сек
    Каналы : 2 канала
    Расположение каналов : Front: L R
    Частота : 48,0 КГц
    Битовая глубина : 16 бит
    Метод сжатия : С потерями
    Размер потока : 160 Мбайт (1%)
    Заголовок : STS
    Язык : Russian
    Default : Нет
    Forced : Нет

    Аудио #3
    Идентификатор : 4
    Формат : DTS
    Формат/Информация : Digital Theater Systems
    Профиль формата : MA / Core
    Режим : 16
    Параметр Endianness формата : Big
    Идентификатор кодека : A_DTS
    Продолжительность : 1 ч. 56 м.
    Вид битрейта : Переменный
    Битрейт : Неизвестно / 1509 Кбит/сек
    Каналы : 6 каналов
    Расположение каналов : Front: L C R, Side: L R, LFE
    Частота : 48,0 КГц
    Битовая глубина : 24 бит
    Метод сжатия : Без потерь / Lossy
    Язык : English
    Default : Нет
    Forced : Нет

    Текст #1
    Идентификатор : 5
    Формат : UTF-8
    Идентификатор кодека : S_TEXT/UTF8
    Идентификатор кодека/Информация : UTF-8 Plain Text
    Язык : Russian
    Default : Нет
    Forced : Нет

    Текст #2
    Идентификатор : 6
    Формат : UTF-8
    Идентификатор кодека : S_TEXT/UTF8
    Идентификатор кодека/Информация : UTF-8 Plain Text
    Язык : English
    Default : Нет
    Forced : Нет

    Меню
    00:00:00.000 : en:Chapter 01
    00:03:26.247 : en:Chapter 02
    00:10:36.427 : en:Chapter 03
    00:16:37.496 : en:Chapter 04
    00:21:18.110 : en:Chapter 05
    00:23:46.299 : en:Chapter 06
    00:26:16.950 : en:Chapter 07
    00:32:35.912 : en:Chapter 08
    00:34:53.091 : en:Chapter 09
    00:40:36.183 : en:Chapter 10
    00:45:26.765 : en:Chapter 11
    00:52:42.534 : en:Chapter 12
    00:58:19.913 : en:Chapter 13
    01:01:34.315 : en:Chapter 14
    01:05:09.363 : en:Chapter 15
    01:10:06.785 : en:Chapter 16
    01:12:39.605 : en:Chapter 17
    01:15:22.976 : en:Chapter 18
    01:19:53.955 : en:Chapter 19
    01:24:15.842 : en:Chapter 20
    01:27:09.224 : en:Chapter 21
    01:30:25.169 : en:Chapter 22
    01:32:39.554 : en:Chapter 23
    01:35:10.454 : en:Chapter 24
    01:40:28.897 : en:Chapter 25
    01:47:07.712 : en:Chapter 26
    01:51:43.321 : en:Chapter 27

    Релиз:
    Залил: kaspr
    Размер скачиваемого торрента: 31.03 GB (33316144007 Bytes)

    Американский жиголо / American Gigolo (1980) BDRemux 1080p от MediaClub | P торрент скачать бесплатно
    загрузка...
    Рейтинг →
     (голосов: 1, оценка 5/5, голосовать можно 1 раз )

    Другие торренты по теме:

  • Американский жиголо / American Gigolo (1980) BDRip 720p от MediaClub | P скачать через торрент бесплатно
  • Американский жиголо / American Gigolo (1980) BDRip от HQCLUB скачать через торрент бесплатно
  • Американский жиголо / American Gigolo (1980) BDRip 1080p by msltel | P, A скачать через торрент бесплатно


    • Комментарии (0):

      Информация

      Информация

        Посетители, находящиеся в группе Гости, не могут оставлять комментарии в данной новости.

        ↓ Меню



        ↓ Опрос

        А Вы добавили сайт в закладки?
        Да
        Не


        Top 10 за месяц (Фильмы)