.
Авторизация | Регистрация
Хочешь лучшие торренты? Добавь свой email!
Добавить
» » 1942 (2010) DVDRip от Youtracker | лицензия скачать через торрент бесплатно




    1942 (2010) DVDRip от Youtracker | лицензия скачать через торрент бесплатно

    Опубликовал: Админ | Дата: 27-02-2015, 11:09 | Просмотров: 360


    Создали в: 2010
    Снималось в: Россия
    Киностудия: Pro-TV
    Категория жанра: военный
    Время просмотра: ~ 00:44:00 / серия

    Перевод текста: не требуется
    Субтитры: нет
    Оригинальная аудиодорожка: русский

    Главный режиссер: Валерий Шалыга

    Актеры: Александр Пашков, Йоханес Габриель, Ольга Олексий, Кирилл Жандаров, Валентина Лосовская, Сергей Романюк, Игорь Денисов, Александр Гиренок, Дарья Баранова, Катожина Завадска...

    Сюжет: Ранняя весна 1942 года. В лесу пережил зиму партизанский отряд Григория. Их осталось очень мало: сам Григорий, Муха, несколько мужиков из деревни, несколько красноармейцев. Мало мужчин, но много женщин, детей и стариков. Они не могут вернуться в деревню. В округе свирепствуют каратели — эсесовцы и латышские полицаи. Поэтому выжить они могут только в лесу. Григорий живет с Дашей, а Алена — в одиночестве. Она замкнулась в себе, ведь в жизни у нее сломано все — муж оказался с другой, а тот, кого полюбила — оказался предателем…



    Качество фильма: DVDRip (4 x DVD9 R5)
    Тип видео: AVI

    Информация о видео: 720x400 (16:9), 25.000 fps, XViD ~ 2000 kbps avg, 0.277 bit/pixel
    Информация о звуке: 48 kHz, АС3 6 ch, 448 kbps, русский

    Раздача от:
    MediaInfo

    Общее
    Полное имя : 1942.2011.O.DVDRip_Youtracker_by_avproh1.avi
    Формат : AVI
    Формат/Информация : Audio Video Interleave
    Размер файла : 777 Мбайт
    Продолжительность : 44 м.
    Общий поток : 2455 Кбит/сек
    Программа кодирования : VirtualDubMod 1.5.10.3 | www.virtualdub-fr.org || (build 2550/release)
    Библиотека кодирования : VirtualDubMod build 2550/release

    Видео
    Идентификатор : 0
    Формат : MPEG-4 Visual
    Профиль формата : Advanced Simple@L5
    Параметр BVOP формата : 1
    Параметр QPel формата : Нет
    Параметр GMC формата : Без точки перехода
    Параметр матрицы формата : Выборочная
    Идентификатор кодека : XVID
    Идентификатор кодека/Подсказка : XviD
    Продолжительность : 44 м.
    Битрейт : 1997 Кбит/сек
    Ширина : 720 пикселей
    Высота : 400 пикселей
    Соотношение сторон : 16:9
    Частота кадров : 25,000 кадров/сек
    Цветовое пространство : YUV
    Субдискретизация насыщенности : 4:2:0
    Битовая глубина : 8 бит
    Тип развёртки : Прогрессивная
    Метод сжатия : С потерями
    Бит/(Пиксели*Кадры) : 0.277
    Размер потока : 632 Мбайт (81%)
    Библиотека кодирования : XviD 73

    Аудио
    Идентификатор : 1
    Формат : AC-3
    Формат/Информация : Audio Coding 3
    Расширение режима : CM (complete main)
    Параметр Endianness формата : Big
    Идентификатор кодека : 2000
    Продолжительность : 44 м.
    Вид битрейта : Постоянный
    Битрейт : 448 Кбит/сек
    Каналы : 6 каналов
    Расположение каналов : Front: L C R, Side: L R, LFE
    Частота : 48,0 КГц
    Битовая глубина : 16 бит
    Метод сжатия : С потерями
    Размер потока : 142 Мбайт (18%)
    Выравнивание : Разделение по промежуткам
    Продолжительность промежутка : 40 мс. (1,00 видеокадр)
    Время предзагрузки промежутка : 500 мс.

    Скриншоты для ознакомления:



    Сравнение:

    http://rutor.org/torrent/111767/

    http://screenshotcomparison.com/comparison/45469

    Залил: avproh
    Размер скачиваемого торрента: 12.09 GB (12978079744 Bytes)

    1942 (2010) DVDRip от Youtracker | лицензия скачать через торрент бесплатно
    загрузка...
    Рейтинг →
     (голосов: 1, оценка 5/5, голосовать можно 1 раз )

    Другие торренты по теме:

  • Вспоминая 1942 год / Yi jiu si er / Back To 1942 (2012) HDRip | A
  • Вспоминая 1942 / Back To 1942 (2012) HDRip | НТВ
  • Вспоминая 1942 / Back To 1942 / Yi jiu si er (2012) HDRip | А, Лицензия
  • Сказки Манхэттена / Tales of Manhattan (1942) DVDRip от ExKinoRay
  • Золотые мультфильмы Тэкса Авери / Gold cartoons of Tex Avery (1942-1957) DVDRip | P
  • Диверсант / Saboteur (1942) BDRip от HQCLUB
  • Моя сестра Эйлин / My Sister Eileen (1942) DVDRip-AVC от Тorrent-Хzona
  • Люди-кошки / Cat People (1942) DVDRip-AVC от Тorrent-Хzona


    • Комментарии (0):

      Информация

      Информация

        Посетители, находящиеся в группе Гости, не могут оставлять комментарии в данной новости.

        ↓ Меню



        ↓ Опрос

        А Вы добавили сайт в закладки?
        Да
        Не


        Top 10 за месяц (Фильмы)