.
Авторизация | Регистрация
Хочешь лучшие торренты? Добавь свой email!
Добавить
» » Наемный убийца / Bounty Killer (2013) BDRip 720p | P скачать через торрент бесплатно




    Наемный убийца / Bounty Killer (2013) BDRip 720p | P скачать через торрент бесплатно

    Опубликовал: Админ | Дата: 27-02-2015, 11:09 | Просмотров: 281



    Детально о кино
    Русское название: Наемный убийца
    Русское название в мировом прокате: Bounty Killer
    Создали в: 2013
    Категория жанра: боевик
    Главный режиссер: Генри Сэйн
    Актеры: Мэттью Мэрсден, Кристанна Локен, Кристиан Питре, Барак Хардли, Абрахам Бенруби, Гэри Бьюзи, Беверли Д’Анджело, Ив, Кевин МакНэлли, Алекса Вега

    Сюжет фильма: Спустя двадцать лет после начала Корпоративной Мировой войны, некогда цветущая и плодородная планета превратилась в выжженную пустыню, усеянную полуразрушенными останками людских поселений. Среди непрекращающейся тьмы и разрухи на свет появился Совет Девяти Роз, призванный уничтожить всё, что хоть отдалённо напоминает о корпорациях. Так началась эпоха наёмных убийц, охотящихся за белыми воротничками.



    Снималось в: США
    Время просмотра: 01:32:40
    Тип перевода: Профессиональное (многоголосое)

    Файл
    Тип видео: MKV
    Качество фильма: BDRip 720p
    Информация о видео: 3902 kb/s, 1280x534
    Информация о звуке: Russian: AC3, 192 kb/s (2 ch) / English: DTS, 1510 kb/s (6 ch)

    MI

    Format : Matroska
    Format version : Version 2
    File size : 3.63 GiB
    Duration : 1h 32mn
    Overall bit rate : 5 605 Kbps
    Encoded date : UTC 2013-10-22 16:37:53
    Writing application : mkvmerge v5.8.0 (;No Sleep / Pillow;) built on Sep 2 2012 15:37:04
    Writing library : libebml v1.2.3 libmatroska v1.3.0

    Video
    ID : 1
    Format : AVC
    Format/Info : Advanced Video Codec
    Format profile : High@L4.1
    Format settings, CABAC : Yes
    Format settings, ReFrames : 10 frames
    Codec ID : V_MPEG4/ISO/AVC
    Duration : 1h 32mn
    Bit rate : 3 902 Kbps
    Width : 1 280 pixels
    Height : 534 pixels
    Display aspect ratio : 2.40:1
    Frame rate : 23.976 fps
    Color space : YUV
    Chroma subsampling : 4:2:0
    Bit depth : 8 bits
    Scan type : Progressive
    Bits/(Pixel*Frame) : 0.238
    Stream size : 2.45 GiB (68%)
    Writing library : x264 core 138 r2356 a1d3d17
    Encoding settings : cabac=1 / ref=10 / deblock=1:-2:-2 / analyse=0x3:0x113 / me=umh / subme=10 / psy=1 / psy_rd=1.00:0.05 / mixed_ref=1 / me_range=32 / chroma_me=1 / trellis=2 / 8x8dct=1 / cqm=0 / deadzone=21,11 / fast_pskip=0 / chroma_qp_offset=-2 / threads=18 / lookahead_threads=1 / sliced_threads=0 / nr=0 / decimate=1 / interlaced=0 / bluray_compat=0 / constrained_intra=0 / bframes=5 / b_pyramid=2 / b_adapt=2 / b_bias=0 / direct=3 / weightb=1 / open_gop=0 / weightp=2 / keyint=250 / keyint_min=23 / scenecut=40 / intra_refresh=0 / rc=2pass / mbtree=0 / bitrate=3902 / ratetol=1.0 / qcomp=0.70 / qpmin=0 / qpmax=69 / qpstep=4 / cplxblur=20.0 / qblur=0.5 / ip_ratio=1.40 / pb_ratio=1.30 / aq=2:1.00
    Language : English
    Default : Yes
    Forced : No

    Audio #1
    ID : 2
    Format : AC-3
    Format/Info : Audio Coding 3
    Mode extension : CM (complete main)
    Format settings, Endianness : Big
    Codec ID : A_AC3
    Duration : 1h 32mn
    Bit rate mode : Constant
    Bit rate : 192 Kbps
    Channel(s) : 2 channels
    Channel positions : Front: L R
    Sampling rate : 48.0 KHz
    Bit depth : 16 bits
    Compression mode : Lossy
    Stream size : 127 MiB (3%)
    Language : Russian
    Default : Yes
    Forced : No

    Audio #2
    ID : 3
    Format : DTS
    Format/Info : Digital Theater Systems
    Codec ID : A_DTS
    Duration : 1h 32mn
    Bit rate mode : Constant
    Bit rate : 1 510 Kbps
    Channel(s) : 6 channels
    Channel positions : Front: L C R, Side: L R, LFE
    Sampling rate : 48.0 KHz
    Bit depth : 24 bits
    Compression mode : Lossy
    Stream size : 1 001 MiB (27%)
    Language : English
    Default : No
    Forced : No
    Скриншоты для ознакомления

    Размер скачиваемого торрента: 3.63 GB (3895336302 Bytes)

    Наемный убийца / Bounty Killer (2013) BDRip 720p | P скачать через торрент бесплатно
    загрузка...
    Рейтинг →
     (голосов: 1, оценка 3/5, голосовать можно 1 раз )

    Другие торренты по теме:

  • Наемный убийца / The Killer / Dip huet seung hung (1989) BDRip-AVC от NovaLan
  • Наемный убийца / Hit man (1972) DVDRip от ClubTorrent | L
  • Наемный убийца / Bounty Killer (2013) HDRip | P скачать через торрент бесплатно
  • Наемный убийца / Bounty Killer (2013) HDRip от BitTracker | P скачать через торрент бесплатно
  • Наемный убийца / Bounty Killer (2013) Blu-ray Remux 1080p от MediaClub
  • Наемный убийца / Bounty Killer (2013) BDRip-AVC от HELLYWOOD | P
  • Наемный убийца / Bounty Killer (2013) BDRip 1080p от Killbrain and Scarabey | US Transfer скачать через торрент бесплатно
  • Наемный убийца для Троицы / Un Bounty Killer a Trinita (1972) DVDRip | L1 скачать через торрент бесплатно


    • Комментарии (0):

      Информация

      Информация

        Посетители, находящиеся в группе Гости, не могут оставлять комментарии в данной новости.

        ↓ Меню



        ↓ Опрос

        А Вы добавили сайт в закладки?
        Да
        Не


        Top 10 за месяц (Фильмы)