.
Авторизация | Регистрация
Хочешь лучшие торренты? Добавь свой email!
Добавить
» » Агенты Щ.И.Т. / Marvels Agents of S.H.I.E.L.D. (2013) WEB-DL HD 1080p, 720p | LostFilm | Apple TV, New iPad скачать торрент бесплатно




    Агенты Щ.И.Т. / Marvels Agents of S.H.I.E.L.D. (2013) WEB-DL HD 1080p, 720p | LostFilm | Apple TV, New iPad скачать торрент бесплатно

    Опубликовал: Админ | Дата: 27-02-2015, 11:09 | Просмотров: 347

    Агенты Щ.И.Т. / Marvel;s Agents of S.H.I.E.L.D.
    Not All Heroes Are Super.





    Год выпуска: 2013
    Страна: США
    Жанр: Action, Drama, Sci-Fi
    Жанр iTunes: Drama
    Продолжительность: ~ 0:43:00
    Перевод: Профессиональный (многоголосый, закадровый) - LostFilm
    Видео:1080p - H.264, ~5000 kbps avg, 1920 x 1080 (16:9), 23.976 fps
    720p - H.264, ~4000 kbps avg, 1280 x 720 (16:9), 23.976 fpsАудио:АAC 2.0 160 kbps - Профессиональный (многоголосый, закадровый) - LostFilm
    АAC 2.0 160 kbps - Английский - Оригинал
    АС3 5.1 384 kbps - Профессиональный (многоголосый, закадровый) - LostFilm
    АС3 5.1 384 kbps - Английский - ОригиналCубтитры:3GPP Text - АнглийскиеСоздатели и актеры

    Режиссёр:Дэвид Соломон, Дэвид Стрейтон, Джосс УидонСценарий:Морисса Танчароэн, Джед Уидон, Джосс УидонПродюсер:Джеффри Белл, Джозеф Лоуб III, Морисса ТанчароэнВ ролях:Кларк Грев, Минг-На, Бретт Далтон, Хлоя Беннет, Йен де Кестекер, Элизабет Хенстридж, Дж. Аугуст Ричардс, Шеннон Лучио, Рон Гласс, Роберт Дж. СтефенсонОписание :Кларк Грегг возвращается в роли агента Фила Коулсона из вселенной фильмов Marvel, и возглавляет группу из избранных агентов из всемирной организации S.H.I.E.L.D. Вместе они расследуют новые, странные и неизведанные события по всему свету, защищая обычных людей от необычных явлений. В команду Коулсона входят самые лучшие: агент Грант Уорд, умелец в рукопашном бою и шпионаже; агент Мелинды Мэй, эксперт в высшем пилотаже и боевых искусствах; агент Лео Фитц, блестящий инженер; и агент Джемма Симмонс, талантливый биохимик. Не обошлось и без новобранца: к команде присоединилась хакер Скай. От сценариста и продюсера Джосса Уидона, а также Джеда Уидона и Мориссы Танкар









    Marvel;s Agents of S.H.I.E.L.D., Season 1

    01. Пилот (Pilot)
    02. 0-8-4 (0-8-4)
    03. Ценный груз (The Asset)
    04. Глаз-алмаз (Eye-Spy)
    05. (Girl in the Flower Dress)

    Технические данные сериала:
    iTunes MetaTag S01E01:

    Sort Album: Marvel;s Agents of S.H.I.E.L.D., Season 1
    iTunes Country: 143441
    XID: abc:vendor_id:ABC_MARVELSAGENTSOFSHIELD_101_USA
    genreID: 4001
    playlistID: 689571083
    artistID: 689571082
    contentID: 715240299
    Copyright: © Disney Enterprises, Inc.
    Rating: 11
    Series Deion: As the world comes to grips with the existence of superheroes and aliens, agent Phil Coulson assembles a small group of highly skilled agents; the team;s first assignment is to find a man with extraordinary -- and potentially devastating -- powers.
    Long Deion: As the world comes to grips with the existence of superheroes and aliens, agent Phil Coulson assembles a small group of highly skilled agents; the team;s first assignment is to find a man with extraordinary -- and potentially devastating -- powers.
    Deion: As the world comes to grips with the existence of superheroes and aliens, agent Phil Coulson assembles a small group of highly skilled agents; the team;s first assignment is to find a man with extraordinary -- and potentially devastating -- powers.
    TV Season: 1
    TV Episode ID: 101
    TV Network: ABC
    TV Episode #: 1
    TV Show: Marvel;s Agents of S.H.I.E.L.D.
    Disk #: 1/1
    Track #: 1/0
    Release Date: 2013-09-24T07:00:00Z
    Genre: Drama
    Album: Marvel;s Agents of S.H.I.E.L.D.
    Album Artist: Marvel;s Agents of S.H.I.E.L.D.
    Artist: Marvel;s Agents of S.H.I.E.L.D.
    Name: Pilot
    MediaInfo S01E01 (720p):

    General
    Complete name : /TV Shows/Marvel;s Agents of S.H.I.E.L.D_/Season 1/01 Pilot (HD).m4v
    Format : MPEG-4
    Format profile : Apple audio with iTunes info
    Codec ID : M4A
    File size : 1.57 GiB
    Duration : 44mn 4s
    Overall bit rate : 5 098 Kbps
    Movie name : Pilot
    Album : Marvel;s Agents of S.H.I.E.L.D.
    Album/Performer : Marvel;s Agents of S.H.I.E.L.D.
    Part/Position : 1
    Part/Total : 1
    Track name/Position : 1
    Track name/Total : 0
    Performer : Marvel;s Agents of S.H.I.E.L.D.
    Genre : Drama
    Recorded date : UTC 2013-09-24 07:00:00
    Encoded date : UTC 2013-10-03 11:30:50
    Tagged date : UTC 2013-10-04 12:35:58
    Copyright : ? Disney Enterprises, Inc.
    Cover : Yes
    tvsh : Marvel;s Agents of S.H.I.E.L.D.
    tvnn : ABC
    tven : 101
    tvsn : 1
    tves : 1
    soal : Marvel;s Agents of S.H.I.E.L.D., Season 1
    desc : As the world comes to grips with the existence of superheroes and aliens, agent Phil Coulson assembles a small group of highly skilled agents; the team;s first assignment is to find a man with extraordinary -- and potentially devastating -- powers.
    ldes : As the world comes to grips with the existence of superheroes and aliens, agent Phil Coulson assembles a small group of highly skilled agents; the team;s first assignment is to find a man with extraordinary -- and potentially devastating -- powers.
    sdes : As the world comes to grips with the existence of superheroes and aliens, agent Phil Coulson assembles a small group of highly skilled agents; the team;s first assignment is to find a man with extraordinary -- and potentially devastating -- powers.
    hdvd : 1
    stik : 10
    rtng : 0
    sfID : 143441
    cnID : 715240299
    atID : 689571082
    plID : 689571083
    geID : 4001
    xid : abc:vendor_id:ABC_MARVELSAGENTSOFSHIELD_101_USA
    iTunEXTC : us-tv|TV-PG|400|

    Video
    ID : 1
    Format : AVC
    Format/Info : Advanced Video Codec
    Format profile : High@L3.1
    Format settings, CABAC : No
    Format settings, ReFrames : 2 frames
    Codec ID : avc1
    Codec ID/Info : Advanced Video Coding
    Duration : 44mn 4s
    Bit rate mode : Variable
    Bit rate : 4 016 Kbps
    Width : 1 280 pixels
    Height : 720 pixels
    Display aspect ratio : 16:9
    Frame rate mode : Variable
    Frame rate : 23.976 fps
    Minimum frame rate : 23.810 fps
    Maximum frame rate : 24.390 fps
    Color space : YUV
    Chroma subsampling : 4:2:0
    Bit depth : 8 bits
    Scan type : Progressive
    Bits/(Pixel*Frame) : 0.182
    Stream size : 1.24 GiB (79%)
    Language : English
    Encoded date : UTC 2013-10-04 12:28:02
    Tagged date : UTC 2013-10-04 12:31:49
    Color primaries : BT.709-5, BT.1361, IEC 61966-2-4, SMPTE RP177
    Transfer characteristics : BT.709-5, BT.1361
    Matrix coefficients : BT.709-5, BT.1361, IEC 61966-2-4 709, SMPTE RP177

    Audio #1
    ID : 2
    Format : AAC
    Format/Info : Advanced Audio Codec
    Format profile : LC
    Codec ID : 40
    Duration : 44mn 4s
    Bit rate mode : Variable
    Bit rate : 154 Kbps
    Maximum bit rate : 245 Kbps
    Channel(s) : 2 channels
    Channel positions : Front: L R
    Sampling rate : 48.0 KHz
    Compression mode : Lossy
    Stream size : 48.7 MiB (3%)
    Language : Russian
    Encoded date : UTC 2013-10-03 11:30:50
    Tagged date : UTC 2013-10-03 11:30:52

    Audio #2
    ID : 3
    Format : AAC
    Format/Info : Advanced Audio Codec
    Format profile : LC
    Codec ID : 40
    Duration : 44mn 4s
    Bit rate mode : Variable
    Bit rate : 152 Kbps
    Maximum bit rate : 248 Kbps
    Channel(s) : 2 channels
    Channel positions : Front: L R
    Sampling rate : 48.0 KHz
    Compression mode : Lossy
    Stream size : 48.0 MiB (3%)
    Language : English
    Encoded date : UTC 2013-10-04 12:28:02
    Tagged date : UTC 2013-10-04 12:31:49

    Audio #3
    ID : 4
    Format : AC-3
    Format/Info : Audio Coding 3
    Mode extension : CM (complete main)
    Codec ID : ac-3
    Duration : 44mn 4s
    Bit rate mode : Constant
    Bit rate : 384 Kbps
    Channel(s) : 6 channels
    Channel positions : Front: L C R, Side: L R, LFE
    Sampling rate : 48.0 KHz
    Bit depth : 16 bits
    Compression mode : Lossy
    Stream size : 121 MiB (8%)
    Language : Russian
    Encoded date : UTC 2013-10-04 12:28:02
    Tagged date : UTC 2013-10-04 12:31:49

    Audio #4
    ID : 5
    Format : AC-3
    Format/Info : Audio Coding 3
    Mode extension : CM (complete main)
    Codec ID : ac-3
    Duration : 44mn 4s
    Bit rate mode : Constant
    Bit rate : 384 Kbps
    Channel(s) : 6 channels
    Channel positions : Front: L C R, Side: L R, LFE
    Sampling rate : 48.0 KHz
    Bit depth : 16 bits
    Compression mode : Lossy
    Stream size : 121 MiB (8%)
    Language : English
    Encoded date : UTC 2013-10-04 12:28:02
    Tagged date : UTC 2013-10-04 12:31:49

    Text
    ID : 6
    Format : Timed text
    Muxing mode : sbtl
    Codec ID : tx3g
    Duration : 43mn 16s
    Bit rate mode : Variable
    Bit rate : 104 bps
    Stream size : 33.0 KiB (0%)
    Language : English
    Encoded date : UTC 2013-10-04 12:28:02
    Tagged date : UTC 2013-10-04 12:31:49
    MediaInfo S01E01 (1080p):

    General
    Complete name : /TV Shows/Marvel;s Agents of S.H.I.E.L.D_/Season 1/01 Pilot (1080p HD).m4v
    Format : MPEG-4
    Format profile : Apple audio with iTunes info
    Codec ID : M4A
    File size : 1.87 GiB
    Duration : 44mn 4s
    Overall bit rate : 6 065 Kbps
    Movie name : Pilot
    Album : Marvel;s Agents of S.H.I.E.L.D.
    Album/Performer : Marvel;s Agents of S.H.I.E.L.D.
    Part/Position : 1
    Part/Total : 1
    Track name/Position : 1
    Track name/Total : 0
    Performer : Marvel;s Agents of S.H.I.E.L.D.
    Genre : Drama
    Recorded date : UTC 2013-09-24 07:00:00
    Encoded date : UTC 2013-10-03 11:30:50
    Tagged date : UTC 2013-10-04 12:31:56
    Copyright : ? Disney Enterprises, Inc.
    Cover : Yes
    tvsh : Marvel;s Agents of S.H.I.E.L.D.
    tvnn : ABC
    tven : 101
    tvsn : 1
    tves : 1
    soal : Marvel;s Agents of S.H.I.E.L.D., Season 1
    desc : As the world comes to grips with the existence of superheroes and aliens, agent Phil Coulson assembles a small group of highly skilled agents; the team;s first assignment is to find a man with extraordinary -- and potentially devastating -- powers.
    ldes : As the world comes to grips with the existence of superheroes and aliens, agent Phil Coulson assembles a small group of highly skilled agents; the team;s first assignment is to find a man with extraordinary -- and potentially devastating -- powers.
    sdes : As the world comes to grips with the existence of superheroes and aliens, agent Phil Coulson assembles a small group of highly skilled agents; the team;s first assignment is to find a man with extraordinary -- and potentially devastating -- powers.
    hdvd : 2
    stik : 10
    rtng : 0
    sfID : 143441
    cnID : 715240299
    atID : 689571082
    plID : 689571083
    geID : 4001
    xid : abc:vendor_id:ABC_MARVELSAGENTSOFSHIELD_101_USA
    iTunEXTC : us-tv|TV-PG|400|

    Video
    ID : 1
    Format : AVC
    Format/Info : Advanced Video Codec
    Format profile : High@L4.0
    Format settings, CABAC : Yes
    Format settings, ReFrames : 4 frames
    Codec ID : avc1
    Codec ID/Info : Advanced Video Coding
    Duration : 44mn 4s
    Bit rate mode : Variable
    Bit rate : 4 982 Kbps
    Width : 1 920 pixels
    Height : 1 080 pixels
    Display aspect ratio : 16:9
    Frame rate mode : Variable
    Frame rate : 23.976 fps
    Minimum frame rate : 23.810 fps
    Maximum frame rate : 24.390 fps
    Color space : YUV
    Chroma subsampling : 4:2:0
    Bit depth : 8 bits
    Scan type : Progressive
    Bits/(Pixel*Frame) : 0.100
    Stream size : 1.53 GiB (82%)
    Language : English
    Encoded date : UTC 2013-10-04 12:24:33
    Tagged date : UTC 2013-10-04 12:28:02
    Color primaries : BT.709-5, BT.1361, IEC 61966-2-4, SMPTE RP177
    Transfer characteristics : BT.709-5, BT.1361
    Matrix coefficients : BT.709-5, BT.1361, IEC 61966-2-4 709, SMPTE RP177

    Audio #1
    ID : 2
    Format : AAC
    Format/Info : Advanced Audio Codec
    Format profile : LC
    Codec ID : 40
    Duration : 44mn 4s
    Bit rate mode : Variable
    Bit rate : 154 Kbps
    Maximum bit rate : 245 Kbps
    Channel(s) : 2 channels
    Channel positions : Front: L R
    Sampling rate : 48.0 KHz
    Compression mode : Lossy
    Stream size : 48.7 MiB (3%)
    Language : Russian
    Encoded date : UTC 2013-10-03 11:30:50
    Tagged date : UTC 2013-10-03 11:30:52

    Audio #2
    ID : 3
    Format : AAC
    Format/Info : Advanced Audio Codec
    Format profile : LC
    Codec ID : 40
    Duration : 44mn 4s
    Bit rate mode : Variable
    Bit rate : 152 Kbps
    Maximum bit rate : 248 Kbps
    Channel(s) : 2 channels
    Channel positions : Front: L R
    Sampling rate : 48.0 KHz
    Compression mode : Lossy
    Stream size : 48.0 MiB (3%)
    Language : English
    Encoded date : UTC 2013-10-04 12:24:33
    Tagged date : UTC 2013-10-04 12:28:02

    Audio #3
    ID : 4
    Format : AC-3
    Format/Info : Audio Coding 3
    Mode extension : CM (complete main)
    Codec ID : ac-3
    Duration : 44mn 4s
    Bit rate mode : Constant
    Bit rate : 384 Kbps
    Channel(s) : 6 channels
    Channel positions : Front: L C R, Side: L R, LFE
    Sampling rate : 48.0 KHz
    Bit depth : 16 bits
    Compression mode : Lossy
    Stream size : 121 MiB (6%)
    Language : Russian
    Encoded date : UTC 2013-10-04 12:24:33
    Tagged date : UTC 2013-10-04 12:28:02

    Audio #4
    ID : 5
    Format : AC-3
    Format/Info : Audio Coding 3
    Mode extension : CM (complete main)
    Codec ID : ac-3
    Duration : 44mn 4s
    Bit rate mode : Constant
    Bit rate : 384 Kbps
    Channel(s) : 6 channels
    Channel positions : Front: L C R, Side: L R, LFE
    Sampling rate : 48.0 KHz
    Bit depth : 16 bits
    Compression mode : Lossy
    Stream size : 121 MiB (6%)
    Language : English
    Encoded date : UTC 2013-10-04 12:24:33
    Tagged date : UTC 2013-10-04 12:28:02

    Text
    ID : 6
    Format : Timed text
    Muxing mode : sbtl
    Codec ID : tx3g
    Duration : 43mn 16s
    Bit rate mode : Variable
    Bit rate : 104 bps
    Stream size : 33.0 KiB (0%)
    Language : English
    Encoded date : UTC 2013-10-04 12:24:33
    Tagged date : UTC 2013-10-04 12:28:02

    Скриншоты для ознакомления:




    Релиз подготовлен специально для просмотра на Apple TV, iPad.
    Пользователям Windows рекомендуется просматривать в VLC.
    Размер скачиваемого торрента: 13.65 GB (14656840447 Bytes)

    Агенты Щ.И.Т. / Marvels Agents of S.H.I.E.L.D. (2013) WEB-DL HD 1080p, 720p | LostFilm | Apple TV, New iPad торрент скачать бесплатно
    загрузка...
    Рейтинг →
     (голосов: 1, оценка 5/5, голосовать можно 1 раз )

    Другие торренты по теме:

  • Тайны мира с Анной Чапман. Разоблачение. Агенты в белых халатах (2013) SATRip
  • Финес и Ферб: Зверушкины агенты / Phineas and Ferb: Animal agents (2012-2013) DVDRip от Youtracker | D | лицензия
  • Барбузы - Секретные агенты / Les Barbouzes (1964) BDRip-AVC от Тorrent-Хzona
  • Халк и Агенты У.Д.А.Р. / Hulk and the Agents of S.M.A.S.H (2013) WEB-DLRip
  • Халк И Агенты У.Д.А.Р. / Hulk And The Agents Of S.M.A.S.H. (2013) WEB-DLRip 720p | L1 скачать через торрент бесплатно
  • Агенты Щ.И.Т.а / Agents of S.H.I.E.L.D (2013) WEB-DL 720p | Jaskier Studio скачать через торрент бесплатно
  • Агенты Щ.И.Т.а / Agents of S.H.I.E.L.D (2013) WEB-DLRip | Jaskier Studio скачать через торрент бесплатно
  • Агенты Щ.И.Т. / Agents of S.H.I.E.L.D. (2013) HDTVRip | Kerob скачать через торрент бесплатно


    • Комментарии (0):

      Информация

      Информация

        Посетители, находящиеся в группе Гости, не могут оставлять комментарии в данной новости.

        ↓ Меню



        ↓ Опрос

        А Вы добавили сайт в закладки?
        Да
        Не


        Top 10 за месяц (Фильмы)