.
Авторизация | Регистрация
Хочешь лучшие торренты? Добавь свой email!
Добавить
» » Странный Томас / Odd Thomas (2013) BDRip 720p от MULTIBITS | P скачать торрент бесплатно




    Странный Томас / Odd Thomas (2013) BDRip 720p от MULTIBITS | P скачать торрент бесплатно

    Опубликовал: Админ | Дата: 27-02-2015, 11:09 | Просмотров: 322



    Детально о кино
    Русское название: Странный Томас
    Русское название в мировом прокате: Odd Thomas
    Создали в: 2013
    Категория жанра: Триллер, детектив, экранизация
    Главный режиссер: Стивен Соммерс
    Актеры: Антон Ельчин, Эшли Соммерс, Леонор Варела, Мэттью Пейдж, Кэйси Мессер, Нико Торторелла, Уиллем Дефо, Кайл МакКивер

    Сюжет фильма:
    Главный герой наделен даром (или проклятием) видеть мертвецов. Каждый их визит становится началом очередной охоты на убийцу — призраки ведут Томаса на помощь тем, кому еще рано расставаться с жизнью. О способности героя знают только самые близкие друзья и любимая девушка. С их помощью ему предстоит отвести большую беду от маленького городка в центре пустыни Мохаве.



    Снималось в: США / Fusion Films (II), Future Films
    Время просмотра: 01:39:43
    Тип перевода: Профессиональное (многоголосое) Товарищество 110/17
    Дополнительно: Сохранены оригинальные чаптеры

    Файл
    Тип видео: MKV (x264)
    Качество фильма: BDRip 720p
    Информация о видео: 5785 Кбит/с, 1280x534
    Информация о звуке: АС3, 384 Кбит/с (6 ch)

    Семпл



    MI
    Format : Matroska
    Format version : Version 4 / Version 2
    File size : 4.26 GiB
    Duration : 1h 36mn
    Overall bit rate : 6 307 Kbps
    Encoded date : UTC 2013-10-21 12:00:36
    Writing application : mkvmerge v6.4.1 (;Omega Point;) built on Sep 16 2013 22:05:10
    Writing library : libebml v1.3.0 libmatroska v1.4.1

    Video
    ID : 1
    Format : AVC
    Format/Info : Advanced Video Codec
    Format profile : High@L4.1
    Format settings, CABAC : Yes
    Format settings, ReFrames : 4 frames
    Codec ID : V_MPEG4/ISO/AVC
    Duration : 1h 36mn
    Bit rate : 5 797 Kbps
    Width : 1 280 pixels
    Height : 534 pixels
    Display aspect ratio : 2.40:1
    Frame rate mode : Constant
    Frame rate : 23.976 fps
    Color space : YUV
    Chroma subsampling : 4:2:0
    Bit depth : 8 bits
    Scan type : Progressive
    Bits/(Pixel*Frame) : 0.354
    Stream size : 3.91 GiB (92%)
    Writing library : x264 core 138 r2359 704 48 3f879a0 tMod 8-bit@all X86_64
    Encoding settings : cabac=1 / ref=2 / deblock=1:-1:-1 / analyse=0x3:0x133 / me=dia / subme=3 / psy=1 / fade_compensate=0.00 / psy_rd=1.00:0.00 / mixed_ref=1 / me_range=16 / chroma_me=1 / trellis=2 / 8x8dct=1 / cqm=0 / deadzone=21,11 / fast_pskip=0 / chroma_qp_offset=0 / threads=12 / lookahead_threads=3 / sliced_threads=0 / nr=0 / decimate=1 / interlaced=0 / bluray_compat=0 / constrained_intra=0 / fgo=0 / bframes=2 / b_pyramid=2 / b_adapt=2 / b_bias=0 / direct=1 / weightb=1 / open_gop=0 / weightp=2 / keyint=240 / keyint_min=23 / scenecut=40 / intra_refresh=0 / rc_lookahead=60 / rc=crf / mbtree=0 / crf=16.0000 / qcomp=0.70 / qpmin=0:0:0 / qpmax=69:69:69 / qpstep=4 / vbv_maxrate=50000 / vbv_bufsize=62500 / crf_max=0.0 / nal_hrd=none / ip_ratio=1.30 / pb_ratio=1.20 / aq=1:0.80 / aq-sensitivity=10.00 / aq-factor=1.00:1.00:1.00 / aq2=0 / aq3=0
    Default : Yes
    Forced : No

    Audio
    ID : 2
    Format : AC-3
    Format/Info : Audio Coding 3
    Mode extension : CM (complete main)
    Format settings, Endianness : Big
    Codec ID : A_AC3
    Duration : 1h 36mn
    Bit rate mode : Constant
    Bit rate : 384 Kbps
    Channel count : 6 channels
    Channel positions : Front: L C R, Side: L R, LFE
    Sampling rate : 48.0 KHz
    Bit depth : 16 bits
    Compression mode : Lossy
    Stream size : 266 MiB (6%)
    Language : Russian
    Default : Yes
    Forced : No

    Menu
    00:00:00.000 : en:00:00:00.000
    00:05:35.502 : en:00:05:35.502
    00:11:26.769 : en:00:11:26.769
    00:17:12.114 : en:00:17:12.114
    00:21:48.307 : en:00:21:48.307
    00:28:34.963 : en:00:28:34.963
    00:31:34.476 : en:00:31:34.476
    00:38:53.331 : en:00:38:53.331
    00:43:32.985 : en:00:43:32.985
    00:47:46.572 : en:00:47:46.572
    00:52:51.585 : en:00:52:51.585
    00:59:53.799 : en:00:59:53.799
    01:05:13.743 : en:01:05:13.743
    01:11:50.807 : en:01:11:50.807
    01:21:49.321 : en:01:21:49.321
    01:29:40.834 : en:01:29:40.834
    Скриншоты для ознакомления


    Релиз подготовил:
    Размер скачиваемого торрента: 4.26 GB (4572940606 Bytes)

    Странный Томас / Odd Thomas (2013) BDRip 720p от MULTIBITS | P торрент скачать бесплатно
    загрузка...
    Рейтинг →
     (голосов: 1, оценка 4/5, голосовать можно 1 раз )

    Другие торренты по теме:

  • Странный Томас / Odd Thomas (2013) DVDRip | L2
  • Странный Томас / Odd Thomas (2013) DVDRip-AVC | P
  • Странный Томас / Odd Thomas (2013) HDRip | P скачать через торрент бесплатно
  • Странный Томас / Odd Thomas (2013) DVDRip | iPhone скачать через торрент бесплатно
  • Странный Томас / Odd Thomas (2013) HDRip от ed_rez | P
  • Странный Томас / Odd Thomas (2013) BDRip 1080p от MULTIBITS | P скачать через торрент бесплатно
  • Странный Томас / Odd Thomas (2013) BDRip 1080p от CINEMANIA | P , L2 скачать через торрент бесплатно
  • Странный Томас / Odd Thomas (2013) BDRip 720p от CINEMANIA | P , L2 скачать через торрент бесплатно


    • Комментарии (0):

      Информация

      Информация

        Посетители, находящиеся в группе Гости, не могут оставлять комментарии в данной новости.

        ↓ Меню



        ↓ Опрос

        А Вы добавили сайт в закладки?
        Да
        Не


        Top 10 за месяц (Фильмы)