.
Авторизация | Регистрация
Хочешь лучшие торренты? Добавь свой email!
Добавить
» » Видимые шрамы / Visible Scars (2012) BDRip 720p от MULTIBITS | P скачать торрент бесплатно




    Видимые шрамы / Visible Scars (2012) BDRip 720p от MULTIBITS | P скачать торрент бесплатно

    Опубликовал: Админ | Дата: 27-02-2015, 11:09 | Просмотров: 253



    Детально о кино
    Русское название: Видимые шрамы
    Русское название в мировом прокате: Visible Scars
    Создали в: 2012
    Категория жанра: Триллер, ужасы
    Главный режиссер: Ричард Турк
    Актеры: Том Сайзмор, Джиллиан Мюррэй, Ханна Р. Холл, Деджа Креуцберг, Парк Дэйв, Тимоти Коул, Йонас Фиш, Кэрол Эбни, Аликс Анджелис, Обако Адедуно

    Сюжет фильма:
    Семнадцать лет назад Майк Джиллис убил женщину, только что родившую девочек-близнецов. Младенцев он забрал в свое уединенное жилище в лесу, чтобы выдать их за собственных детей и, тем самым, порадовать свою жену, которая очень хотела детей, но не могла родить сама. Семь лет Майк держал подрастающих девочек в подвале, оберегал их, убивая всех и каждого, кто мог проникнуть в его тайну. Вскоре и его жена стала одной из его жертв. Но однажды в его лесной хижине случился пожар, и рухнувшие стены погребли под собой и Майка, и его маленьких узниц.



    Снималось в: США
    Время просмотра: 01:41:06
    Тип перевода: Любительское (двухголосое) DeadSno den904

    Файл
    Тип видео: MKV (x264)
    Качество фильма: BDRip 720p
    Информация о видео: 4668 Кбит/с, 1280x720
    Информация о звуке: AC3, 192 Кбит/с (2 ch)

    Семпл



    MI
    Format : Matroska
    Format version : Version 4 / Version 2
    File size : 3.43 GiB
    Duration : 1h 41mn
    Overall bit rate : 4 862 Kbps
    Encoded date : UTC 2013-10-21 12:26:12
    Writing application : mkvmerge v6.4.1 (;Omega Point;) built on Sep 16 2013 22:05:10
    Writing library : libebml v1.3.0 libmatroska v1.4.1

    Video
    ID : 1
    Format : AVC
    Format/Info : Advanced Video Codec
    Format profile : High@L4.1
    Format settings, CABAC : Yes
    Format settings, ReFrames : 5 frames
    Codec ID : V_MPEG4/ISO/AVC
    Duration : 1h 41mn
    Bit rate : 4 668 Kbps
    Width : 1 280 pixels
    Height : 720 pixels
    Display aspect ratio : 16:9
    Frame rate mode : Constant
    Frame rate : 23.976 fps
    Color space : YUV
    Chroma subsampling : 4:2:0
    Bit depth : 8 bits
    Scan type : Progressive
    Bits/(Pixel*Frame) : 0.211
    Stream size : 3.23 GiB (94%)
    Writing library : x264 core 133 r2334 a3ac64b
    Encoding settings : cabac=1 / ref=5 / deblock=1:-1:-1 / analyse=0x3:0x113 / me=umh / subme=7 / psy=1 / psy_rd=1.00:0.00 / mixed_ref=1 / me_range=16 / chroma_me=1 / trellis=1 / 8x8dct=1 / cqm=0 / deadzone=21,11 / fast_pskip=1 / chroma_qp_offset=-2 / threads=12 / lookahead_threads=2 / sliced_threads=0 / nr=0 / decimate=1 / interlaced=0 / bluray_compat=0 / constrained_intra=0 / bframes=3 / b_pyramid=2 / b_adapt=2 / b_bias=0 / direct=3 / weightb=1 / open_gop=0 / weightp=2 / keyint=250 / keyint_min=23 / scenecut=40 / intra_refresh=0 / rc_lookahead=40 / rc=2pass / mbtree=1 / bitrate=4668 / ratetol=1.0 / qcomp=0.60 / qpmin=0 / qpmax=69 / qpstep=4 / cplxblur=20.0 / qblur=0.5 / vbv_maxrate=50000 / vbv_bufsize=50000 / nal_hrd=none / ip_ratio=1.40 / aq=1:1.00
    Language : English
    Default : Yes
    Forced : No

    Audio
    ID : 2
    Format : AC-3
    Format/Info : Audio Coding 3
    Mode extension : CM (complete main)
    Format settings, Endianness : Big
    Codec ID : A_AC3
    Duration : 1h 41mn
    Bit rate mode : Constant
    Bit rate : 192 Kbps
    Channel count : 2 channels
    Channel positions : Front: L R
    Sampling rate : 48.0 KHz
    Bit depth : 16 bits
    Compression mode : Lossy
    Stream size : 139 MiB (4%)
    Title : Den904 DeadSno
    Language : Russian
    Default : Yes
    Forced : Yes
    Скриншоты для ознакомления


    Релиз подготовил:
    Размер скачиваемого торрента: 3.43 GB (3686413397 Bytes)

    Видимые шрамы / Visible Scars (2012) BDRip 720p от MULTIBITS | P торрент скачать бесплатно
    загрузка...
    Рейтинг →
     (голосов: 1, оценка 4/5, голосовать можно 1 раз )

    Другие торренты по теме:

  • Видимые шрамы / Visible Scars (2012) HDRip | L


    • Комментарии (0):

      Информация

      Информация

        Посетители, находящиеся в группе Гости, не могут оставлять комментарии в данной новости.

        ↓ Меню



        ↓ Опрос

        А Вы добавили сайт в закладки?
        Да
        Не


        Top 10 за месяц (Фильмы)