.
Авторизация | Регистрация
Хочешь лучшие торренты? Добавь свой email!
Добавить
» » Гонщики / Roadracers (1994) BDRip by msltel | P2, A скачать торрент бесплатно




    Гонщики / Roadracers (1994) BDRip by msltel | P2, A скачать торрент бесплатно

    Опубликовал: Админ | Дата: 27-02-2015, 11:09 | Просмотров: 372



    Русское название: Гонщики
    Русское название в мировом прокате: Roadracers
    Создали в: 1994
    Категория жанра: Боевик, драма
    Снималось в: США, Spelling Films International
    Главный режиссер: Роберт Родригес
    Актеры: Дэвид Аркетт, Джон Хоукс, Сальма Хайек, Джейсон Уайлз, Уильям Сэдлер, О’Нил Комптон, Кристиан Клемаш, Аарон Вон, Тэмми Брэйди Конрад, Марк Ловенталь

    Сюжет фильма: Крутой парень Дьюд, поклонник рок-н-ролла и безумный гонщик, влюбляется в красавицу Донну. Их преследует банда местных хулиганов на крутых автомобилях во главе с жестоким Тэдом. Постоянные гонки по улицам города и разборки в ресторанах вызывают недовольство шерифа полиции. Соперничество между Тэдом и Дьюдом перерастает в открытую вражду и приводит к кровавой бойне.

    Качество фильма: BDRip
    Размер скачиваемого торрента: 2.09 ГБ
    Время просмотра: 01:33:28

    Информация о видео: XviD, 1901 Кбит/с, 720x400
    Информация о звуке 1: русский, 48 kHz, AC3, 2 ch, 192 kbps avg, Профессиональный двухголосый
    Информация о звуке 2: русский, 48 kHz, AC3, 2 ch, 192 kbps avg, Авторский, Андрей Гаврилов
    Информация о звуке 3: русский, 48 kHz, AC3, 6 ch, 448 kbps avg, Авторский, Михаил Чадов

    Внешние файлы
    Информация о звуке: английский, 48 kHz, AC3, 6 ch, 448 kbps avg, Оригинал
    Субтитры: русские
    Субтитры: английские

    Исходник: StarbirS

    Сравнение с исходником



    MediaInfo
    Общее
    Полное имя : E:VideoGonshiki.1994.XviD.BDRipGonshiki.1994.Original.eng.ac3
    Формат : AC-3
    Формат/Информация : Audio Coding 3
    Размер файла : 300 Мбайт
    Продолжительность : 1 ч. 33 м.
    Режим общего битрейта : Постоянный
    Общий поток : 448 Кбит/сек

    Аудио
    Формат : AC-3
    Формат/Информация : Audio Coding 3
    Расширение режима : CM (complete main)
    Параметр Endianness формата : Big
    Продолжительность : 1 ч. 33 м.
    Вид битрейта : Постоянный
    Битрейт : 448 Кбит/сек
    Каналы : 6 каналов
    Расположение каналов : Front: L C R, Side: L R, LFE
    Частота : 48,0 КГц
    Битовая глубина : 16 бит
    Метод сжатия : С потерями
    Размер потока : 300 Мбайт (100%)

    Общее
    Полное имя : E:VideoGonshiki.1994.XviD.BDRipGonshiki.1994.rus.srt
    Формат : SubRip
    Размер файла : 67,4 Кбайт

    Текст
    Формат : SubRip
    Метод сжатия : Без потерь

    Общее
    Полное имя : E:VideoGonshiki.1994.XviD.BDRipGonshiki.1994.XviD.BDRip.avi
    Формат : AVI
    Формат/Информация : Audio Video Interleave
    Размер файла : 1,80 Гбайт
    Продолжительность : 1 ч. 33 м.
    Общий поток : 2752 Кбит/сек
    Программа кодирования : VirtualDubMod 1.5.10.2 (build 2540/release)
    Библиотека кодирования : VirtualDubMod build 2540/release

    Видео
    Идентификатор : 0
    Формат : MPEG-4 Visual
    Профиль формата : Advanced Simple@L5
    Параметр BVOP формата : 1
    Параметр QPel формата : Нет
    Параметр GMC формата : Без точки перехода
    Параметр матрицы формата : Default (H.263)
    Режим смешивания : Сжатый битовый поток
    Идентификатор кодека : XVID
    Идентификатор кодека/Подсказка : XviD
    Продолжительность : 1 ч. 33 м.
    Битрейт : 1901 Кбит/сек
    Ширина : 720 пикселей
    Высота : 400 пикселей
    Соотношение сторон : 16:9
    Частота кадров : 23,976 кадра/сек
    Цветовое пространство : YUV
    Субдискретизация насыщенности : 4:2:0
    Битовая глубина : 8 бит
    Тип развёртки : Прогрессивная
    Метод сжатия : С потерями
    Бит/(Пиксели*Кадры) : 0.275
    Размер потока : 1,24 Гбайт (69%)
    Библиотека кодирования : XviD 1.2.1 (UTC 2008-12-04)

    Аудио #1
    Идентификатор : 1
    Формат : AC-3
    Формат/Информация : Audio Coding 3
    Расширение режима : CM (complete main)
    Параметр Endianness формата : Big
    Идентификатор кодека : 2000
    Продолжительность : 1 ч. 33 м.
    Вид битрейта : Постоянный
    Битрейт : 192 Кбит/сек
    Каналы : 2 канала
    Расположение каналов : Front: L R
    Частота : 48,0 КГц
    Битовая глубина : 16 бит
    Метод сжатия : С потерями
    Размер потока : 128 Мбайт (7%)
    Выравнивание : Разделение по промежуткам
    Продолжительность промежутка : 42 мс. (1,00 видеокадр)
    Время предзагрузки промежутка : 500 мс.

    Аудио #2
    Идентификатор : 2
    Формат : AC-3
    Формат/Информация : Audio Coding 3
    Расширение режима : CM (complete main)
    Параметр Endianness формата : Big
    Идентификатор кодека : 2000
    Продолжительность : 1 ч. 33 м.
    Вид битрейта : Постоянный
    Битрейт : 192 Кбит/сек
    Каналы : 2 канала
    Расположение каналов : Front: L R
    Частота : 48,0 КГц
    Битовая глубина : 16 бит
    Метод сжатия : С потерями
    Размер потока : 128 Мбайт (7%)
    Выравнивание : Разделение по промежуткам
    Продолжительность промежутка : 42 мс. (1,00 видеокадр)
    Время предзагрузки промежутка : 500 мс.

    Аудио #3
    Идентификатор : 3
    Формат : AC-3
    Формат/Информация : Audio Coding 3
    Расширение режима : CM (complete main)
    Параметр Endianness формата : Big
    Идентификатор кодека : 2000
    Продолжительность : 1 ч. 33 м.
    Вид битрейта : Постоянный
    Битрейт : 448 Кбит/сек
    Каналы : 6 каналов
    Расположение каналов : Front: L C R, Side: L R, LFE
    Частота : 48,0 КГц
    Битовая глубина : 16 бит
    Метод сжатия : С потерями
    Размер потока : 300 Мбайт (16%)
    Выравнивание : Разделение по промежуткам
    Продолжительность промежутка : 42 мс. (1,00 видеокадр)
    Время предзагрузки промежутка : 500 мс.

    Скриншоты для ознакомления





    Залил: msltel
    Размер скачиваемого торрента: 2.09 GB (2243848115 Bytes)

    Гонщики / Roadracers (1994) BDRip by msltel | P2, A торрент скачать бесплатно
    загрузка...
    Рейтинг →
     (голосов: 1, оценка 5/5, голосовать можно 1 раз )

    Другие торренты по теме:

  • Гонщики / Roadracers (1994) BDRip от TC-Movies
  • Гонщики / Roadracers (1994) BDRip 1080р by msltel | P2, A
  • Гонщики / Roadracers (1994) BDRip 720р by msltel | P2, A
  • Гонщики ада / Motocross Zombies from Hell (2007) DVDRip | A
  • Крутые гонки (Собаки-турбо, Собаки-гонщики) (1-52 серии из 52) / Turbo Dogs / 2008-2011 / ПМ / WEBRip
  • Гонщики из ада / Motocross Zombies from Hell (2007) DVDRip | A
  • Гонщики / 1972 / РУ / DVD-5


    • Комментарии (0):

      Информация

      Информация

        Посетители, находящиеся в группе Гости, не могут оставлять комментарии в данной новости.

        ↓ Меню



        ↓ Опрос

        А Вы добавили сайт в закладки?
        Да
        Не


        Top 10 за месяц (Фильмы)