.
Авторизация | Регистрация
Хочешь лучшие торренты? Добавь свой email!
Добавить
» » Лимб / Haunter (2013) WEB-DLRip 720p | Лицензия скачать торрент бесплатно




    Лимб / Haunter (2013) WEB-DLRip 720p | Лицензия скачать торрент бесплатно

    Опубликовал: Админ | Дата: 27-02-2015, 11:09 | Просмотров: 309



    Информация о фильме
    Название: Лимб
    Оригинальное название: Haunter
    Год выхода: 2013
    Жанр: ужасы, триллер, детектив

    Режиссер: Винченцо Натали
    В ролях: Эбигейл Бреслин, Питер Аутербридж, Мишель Нолден, Стивен МакХэтти, Питер ДаКуна, Элинор Цихи, Дэвид Нолл, Саманта Вайнштейн, Дэвид Хьюлетт, Сара Мэннинен

    О фильме: На первый взгляд, Лиза с её младшим братом и родителями — совершенно обыкновенная семья, ведущая спокойную, размеренную жизнь. Но никто, кроме девочки, не подозревает, что они проживают один и тот же день уже не в первый раз…



    Выпущено: Канада, Франция / Canadian Audio-Visual Certification Office (CAVCO), Canadian Film or Video Production Tax Credit (CPTC), Copper Heart Entertainment
    Продолжительность: 01:37:11
    Озвучивание: Дублированное Лицензия

    Файл
    Качество: WEB-DLRip 720р
    Видео: х264, 1280х688 (1.851), 23.976 fps, 4156 Кbps, 0.197 bit/pixel
    Звук 1: 48 kHz, AC3 Dolby Digital, 3/2 (L,C,R,l,r) LFE ch, ~384 kbps rus
    Звук 2: 48 kHz, AC3 Dolby Digital, 3/2 (L,C,R,l,r) LFE ch, ~384 kbps eng
    Субтитры: английские

    Mediainfo
    Complete name : Haunter.2013.x264.WEB-DLRip.720p.mkv
    Format : Matroska
    Format version : Version 2
    File size : 3.41 GiB
    Duration : 1h 37mn
    Overall bit rate : 5 017 Kbps
    Encoded date : UTC 2013-10-19 12:16:09
    Writing application : mkvmerge v6.4.1 (;Omega Point;) built on Sep 16 2013 22:05:10
    Writing library : libebml v1.3.0 libmatroska v1.4.1

    Video
    ID : 1
    Format : AVC
    Format/Info : Advanced Video Codec
    Format profile : High@L3.1
    Format settings, CABAC : No
    Format settings, ReFrames : 2 frames
    Codec ID : V_MPEG4/ISO/AVC
    Duration : 1h 37mn
    Bit rate : 4 149 Kbps
    Width : 1 280 pixels
    Height : 688 pixels
    Display aspect ratio : 1.85:1
    Frame rate mode : Constant
    Frame rate : 23.976 fps
    Color space : YUV
    Chroma subsampling : 4:2:0
    Bit depth : 8 bits
    Scan type : Progressive
    Bits/(Pixel*Frame) : 0.197
    Stream size : 2.82 GiB (83%)
    Title : Haunter (2013)
    Language : English
    Default : Yes
    Forced : No
    Color primaries : BT.709
    Transfer characteristics : BT.709
    Matrix coefficients : BT.709

    Audio #1
    ID : 2
    Format : AC-3
    Format/Info : Audio Coding 3
    Mode extension : CM (complete main)
    Format settings, Endianness : Big
    Codec ID : A_AC3
    Duration : 1h 37mn
    Bit rate mode : Constant
    Bit rate : 384 Kbps
    Channel count : 6 channels
    Channel positions : Front: L C R, Side: L R, LFE
    Sampling rate : 48.0 KHz
    Bit depth : 16 bits
    Compression mode : Lossy
    Stream size : 267 MiB (8%)
    Title : DUB AC3, 6 ch, 448 Kbps
    Language : Russian
    Default : Yes
    Forced : No

    Audio #2
    ID : 3
    Format : AC-3
    Format/Info : Audio Coding 3
    Mode extension : CM (complete main)
    Format settings, Endianness : Big
    Codec ID : A_AC3
    Duration : 1h 37mn
    Bit rate mode : Constant
    Bit rate : 384 Kbps
    Channel count : 6 channels
    Channel positions : Front: L C R, Side: L R, LFE
    Sampling rate : 48.0 KHz
    Bit depth : 16 bits
    Compression mode : Lossy
    Stream size : 267 MiB (8%)
    Title : AC3, 6 ch, 448 Kbps
    Language : English
    Default : No
    Forced : No

    Text
    ID : 4
    Format : UTF-8
    Codec ID : S_TEXT/UTF8
    Codec ID/Info : UTF-8 Plain Text
    Language : English
    Default : No
    Forced : No

    Menu
    00:00:00.000 : en:Chapter 1
    00:11:17.000 : en:Chapter 2
    00:21:11.000 : en:Chapter 3
    00:31:13.000 : en:Chapter 4
    00:41:12.000 : en:Chapter 5
    00:50:26.000 : en:Chapter 6
    00:58:16.000 : en:Chapter 7
    01:10:59.000 : en:Chapter 8
    01:21:50.000 : en:Chapter 9
    01:34:09.000 : en:Chapter 10
    Скриншоты


    Размер: 3.41 GB (3657228092 Bytes)

    Лимб / Haunter (2013) WEB-DLRip 720p | Лицензия торрент скачать бесплатно
    загрузка...
    Рейтинг →
     (голосов: 1, оценка 4/5, голосовать можно 1 раз )

    Другие торренты по теме:

  • Лимб (2013) скачать через торрент бесплатно
  • Лимб / Haunter (2013) DVDRip | Лицензия скачать через торрент бесплатно
  • Лимб / Haunter (2013) DVDRip от Youtracker | D | лицензия
  • Лимб / Haunter (2013) DVDRip-AVC от Youtracker | D | лицензия
  • Лимб / Haunter (2013) WEB-DLRip | Лицензия
  • Лимб / Haunter (2013) Blu-Ray 1080p от HDClub | Лицензия
  • Лимб / Haunter (2013) Blu-Ray Remux 1080p | Лицензия
  • Лимб / Haunter (2013) BDRip | Лицензия


    • Комментарии (0):

      Информация

      Информация

        Посетители, находящиеся в группе Гости, не могут оставлять комментарии в данной новости.

        ↓ Меню



        ↓ Опрос

        А Вы добавили сайт в закладки?
        Да
        Не


        Top 10 за месяц (Фильмы)