.
Авторизация | Регистрация
Хочешь лучшие торренты? Добавь свой email!
Добавить
» » Огненный шквал / Tarragona - Ein Paradies in Flammen (2007) DVDRip | P скачать торрент бесплатно




    Огненный шквал / Tarragona - Ein Paradies in Flammen (2007) DVDRip | P скачать торрент бесплатно

    Опубликовал: Админ | Дата: 27-02-2015, 11:09 | Просмотров: 417





    Страна: Германия
    Производство: EOS Entertainment, Zeitsprung Entertainment
    Жанр: Драма
    Год выпуска: 2007

    Продолжительность: 2 х ~ 01:26:42


    Перевод: Профессиональный многоголосый

    Оригинальная аудиодорожка: Английская

    Cубтитры: Нет


    Режиссер: Петер Кеглевич


    В ролях: Тим Бергманн, София фон Кессель, Йоханнес Брандруп, Херберт Кнауп, Лаура Тонке, Ханнс Цишлер, Нина Пролль, Рёланд Визнеккер, Йоханнес Зирнер, Питер Бенедикт




    Описание: 11 июля 1978 года. Город Таррагона на юге Испании. В живописной бухте на берегу Средиземного моря расположился большой кемпинг. Сюда едут со всех уголков Европы. Здесь и родители с детьми, и влюбленные парочки, и шумные большие компании, и одинокие пенсионеры. И никто даже представить себе не мог, что ждет их всех в этот знойный июльский день. Среди бела дня, на огромной скорости в кемпинг влетает потерявшая управление автоцистерна, доверху наполненная легковоспламеняющимся сжиженным газом. Через секунду раздается оглушительный взрыв. Лагерь мгновенно охватывает пламя, а людей — ужас и отчаяние…

    Исходник: DVD9 R5

    Тип релиза: DVDRip

    Контейнер: AVI


    Видео: 720x400 (1.80:1), 23.976 fps, XviD ~1981 kbps avg, 0.29 bit/pixel
    Аудио: #1: 48 kHz, AC3 2.0 ~256.00 kbps avg (RUS)
    Аудио: #1: 48 kHz, AC3 2.0 ~256.00 kbps avg (ENG)



    MediaInfo
    Общее
    Полное имя : D:1АААОгненный шквал1 серия.avi
    Формат : AVI
    Формат/Информация : Audio Video Interleave
    Размер файла : 1,54 Гбайт
    Продолжительность : 1 ч. 27 м.
    Общий поток : 2508 Кбит/сек
    Программа кодирования : VirtualDubMod 1.5.10.2 (build 2540/release)
    Библиотека кодирования : VirtualDubMod build 2540/release

    Видео
    Идентификатор : 0
    Формат : MPEG-4 Visual
    Профиль формата : Advanced Simple@L5
    Параметр BVOP формата : 2
    Параметр QPel формата : Нет
    Параметр GMC формата : Без точки перехода
    Параметр матрицы формата : Default (MPEG)
    Режим смешивания : Сжатый битовый поток
    Идентификатор кодека : XVID
    Идентификатор кодека/Подсказка : XviD
    Продолжительность : 1 ч. 27 м.
    Битрейт : 1982 Кбит/сек
    Ширина : 720 пикселей
    Высота : 400 пикселей
    Соотношение сторон : 16:9
    Частота кадров : 23,976 кадра/сек
    Цветовое пространство : YUV
    Субдискретизация насыщенности : 4:2:0
    Битовая глубина : 8 бит
    Тип развёртки : Прогрессивная
    Метод сжатия : С потерями
    Бит/(Пиксели*Кадры) : 0.287
    Размер потока : 1,21 Гбайт (79%)
    Библиотека кодирования : XviD 1.2.1 (UTC 2008-12-04)

    Аудио #1
    Идентификатор : 1
    Формат : AC-3
    Формат/Информация : Audio Coding 3
    Расширение режима : CM (complete main)
    Параметр Endianness формата : Big
    Идентификатор кодека : 2000
    Продолжительность : 1 ч. 27 м.
    Вид битрейта : Постоянный
    Битрейт : 256 Кбит/сек
    Каналы : 2 канала
    Расположение каналов : Front: L R
    Частота : 48,0 КГц
    Битовая глубина : 16 бит
    Метод сжатия : С потерями
    Размер потока : 161 Мбайт (10%)
    Выравнивание : Разделение по промежуткам
    Продолжительность промежутка : 42 мс. (1,00 видеокадр)
    Время предзагрузки промежутка : 500 мс.

    Аудио #2
    Идентификатор : 2
    Формат : AC-3
    Формат/Информация : Audio Coding 3
    Расширение режима : CM (complete main)
    Параметр Endianness формата : Big
    Идентификатор кодека : 2000
    Продолжительность : 1 ч. 27 м.
    Вид битрейта : Постоянный
    Битрейт : 256 Кбит/сек
    Каналы : 2 канала
    Расположение каналов : Front: L R
    Частота : 48,0 КГц
    Битовая глубина : 16 бит
    Метод сжатия : С потерями
    Размер потока : 161 Мбайт (10%)
    Выравнивание : Разделение по промежуткам
    Продолжительность промежутка : 42 мс. (1,00 видеокадр)
    Время предзагрузки промежутка : 500 мс.







    Скриншоты




    Релиз группа:

    Автор рипа:
    Залил: YArl
    Размер: 2.91 GB (3122722816 Bytes)

    Огненный шквал / Tarragona - Ein Paradies in Flammen (2007) DVDRip | P торрент скачать бесплатно
    загрузка...
    Рейтинг →
     (голосов: 1, оценка 4/5, голосовать можно 1 раз )

    Другие торренты по теме:

  • Огненный шторм / Firestorm (1998) DVDRip-AVC от Youtracker | P
  • Александр Воробьев - Огненный след (2013) MP3
  • Сурен Цормудян - Резервация 2051. Огненный зверь (2013) RTF, FB2, TXT
  • Борис Акунин - Огненный перст. Сборник повестей (2013) MP3
  • Ремесло. Огненный Факультет
  • Кош Алекс - Огненный Факультет (2014) MP3 скачать через торрент бесплатно
  • Цормудян Сурен - Резервация 2051 - 2. Огненный зверь (2013) MP3 скачать через торрент бесплатно
  • Огненный мост скачать через торрент бесплатно


    • Комментарии (0):

      Информация

      Информация

        Посетители, находящиеся в группе Гости, не могут оставлять комментарии в данной новости.

        ↓ Меню



        ↓ Опрос

        А Вы добавили сайт в закладки?
        Да
        Не


        Top 10 за месяц (Фильмы)