.
Авторизация | Регистрация
Хочешь лучшие торренты? Добавь свой email!
Добавить
» » Скандал / Scandal (2013) WEBDLRip | Fox Life скачать торрент бесплатно




    Скандал / Scandal (2013) WEBDLRip | Fox Life скачать торрент бесплатно

    Опубликовал: Админ | Дата: 27-02-2015, 11:09 | Просмотров: 758



    Информация о фильме
    Название: Скандал
    Оригинальное название: Scandal
    Год выхода: 2013
    Жанр: драма
    Режиссер: Том Верика, Стив Робин, Оливер Бокельберг
    В ролях: Керри Вашингтон, Генри Йен Кьюсик, Коламбус Шорт, Дэрби Стэнчфилд, Кэти Лоус, Гильермо Диас, Джефф Перри, Тони Голдуин, Джошуа Малина, Беллами Янг, Мэтт Летчер, Лиза Вейл

    О фильме:
    Специалист по связям с общественностью Оливия Поуп, ранее работавшая на президента США, создает свое антикризисное агенство, цель которого — устранять проблемы высокопоставленных клиентов до того, как они станут всеобщим достоянием.



    Страна: США
    Продолжительность: ~45 минут серия
    Перевод: Профессиональный многоголосый закадровый (Fox Life)

    Файл
    Кодек: XvID / MP3
    Качество: WEBDLRip
    Видео: 720x400 (16/9), 23.976 fps, ~1 200 Kbps, 0.172 bit/pixel
    Звук:
    Аудио 1: 48 kHz, MPEG Layer 3, 2 ch, 128 kbps
    Аудио 2: 48 kHz, MPEG Layer 3, 2 ch, 128 kbps

    Скриншоты
    Screenshot
    MediaInfo
    General
    Complete name : I:ЗАКАЧКИscandal.s02.web-dlrip.rus.eng.to4ka.tvscandal.s02e01.web-dlrip.rus.eng.to4ka.tv.avi
    Format : AVI
    Format/Info : Audio Video Interleave
    File size : 450 MiB
    Duration : 43mn 13s
    Overall bit rate : 1 457 Kbps
    Writing application : VirtualDubMod 1.6.0.0 SURROUND (build 2560/release)
    Writing library : VirtualDubMod build 2560/release

    Video
    ID : 0
    Format : MPEG-4 Visual
    Format profile : Advanced Simple@L5
    Format settings, BVOP : 1
    Format settings, QPel : No
    Format settings, GMC : No warppoints
    Format settings, Matrix : Default (MPEG)
    Codec ID : XVID
    Codec ID/Hint : XviD
    Duration : 43mn 13s
    Bit rate : 1 187 Kbps
    Width : 720 pixels
    Height : 400 pixels
    Display aspect ratio : 16:9
    Frame rate : 23.976 fps
    Color space : YUV
    Chroma subsampling : 4:2:0
    Bit depth : 8 bits
    Scan type : Progressive
    Compression mode : Lossy
    Bits/(Pixel*Frame) : 0.172
    Stream size : 367 MiB (81%)
    Writing library : XviD 64

    Audio #1
    ID : 1
    Format : MPEG Audio
    Format version : Version 1
    Format profile : Layer 3
    Mode : Joint stereo
    Mode extension : MS Stereo
    Codec ID : 55
    Codec ID/Hint : MP3
    Duration : 43mn 13s
    Bit rate mode : Constant
    Bit rate : 128 Kbps
    Channel(s) : 2 channels
    Sampling rate : 48.0 KHz
    Compression mode : Lossy
    Stream size : 39.6 MiB (9%)
    Alignment : Aligned on interleaves
    Interleave, duration : 42 ms (1.00 video frame)
    Interleave, preload duration : 504 ms

    Audio #2
    ID : 2
    Format : MPEG Audio
    Format version : Version 1
    Format profile : Layer 3
    Mode : Joint stereo
    Mode extension : MS Stereo
    Codec ID : 55
    Codec ID/Hint : MP3
    Duration : 43mn 13s
    Bit rate mode : Constant
    Bit rate : 128 Kbps
    Channel(s) : 2 channels
    Sampling rate : 48.0 KHz
    Compression mode : Lossy
    Stream size : 39.6 MiB (9%)
    Alignment : Aligned on interleaves
    Interleave, duration : 42 ms (1.00 video frame)
    Interleave, preload duration : 504 ms

    Размер: 9.67 GB (10385285120 Bytes)

    Скандал / Scandal (2013) WEBDLRip | Fox Life торрент скачать бесплатно
    загрузка...
    Рейтинг →
     (голосов: 1, оценка 4/5, голосовать можно 1 раз )

    Другие торренты по теме:

  • Порядочный скандал / Скандал в благородном семействе / Uno scandalo perbene (1984) DVD9
  • Скандал / Scandal (2012) WEB-DLRip | Fox Life
  • Без обмана: Скандал с кониной (2013) SATRip
  • Право голоса. Большой. Скандал (2013) WEBRip
  • Скандал / Scandal (2012-2013) WEB-DLRip | Fox Life
  • Без обмана. Крупный скандал (2014) SATRip скачать через торрент бесплатно
  • Скандал / Scandal (2013) WEB-DL 720p | Fox Life скачать через торрент бесплатно
  • Скандал / Scandal (2013) WEB-DL 1080p | Fox Life скачать через торрент бесплатно


    • Комментарии (0):

      Информация

      Информация

        Посетители, находящиеся в группе Гости, не могут оставлять комментарии в данной новости.

        ↓ Меню



        ↓ Опрос

        А Вы добавили сайт в закладки?
        Да
        Не


        Top 10 за месяц (Фильмы)