.
Авторизация | Регистрация
Хочешь лучшие торренты? Добавь свой email!
Добавить
» » Фанатка / Swimfan (2002) WEB-DLRip от Leon-masl | D скачать торрент бесплатно




    Фанатка / Swimfan (2002) WEB-DLRip от Leon-masl | D скачать торрент бесплатно

    Опубликовал: Админ | Дата: 27-02-2015, 11:09 | Просмотров: 296



    Информация о фильме
    Название: Фанатка
    Оригинальное название: Swimfan
    Год выхода: 2002
    Жанр: триллер, драма
    Режиссер: Джон Полсон/John Polson
    В ролях: Джесси Брэдфорд, Эрика Кристенсен, Шири Эпплби, Кейт Бертон, Клэйн Кроуфорд, Джейсон Риттер, Киа Гудвин, Дэн Хедайя, Майкл Хиггинс, Ник Сэндоу и др.

    О фильме:
    Бен Кронин — баловень судьбы, предмет восхищения многочисленных друзей и поклонников. У него потрясающая подружка и неплохие перспективы попасть в университетскую спортивную команду. Не думайте, что все это дается ему легко — каждый день Бен проводит в бассейне много часов в непрерывных тренировках, работает в местной больнице и с трудом находит время, чтобы провести его со своей любимой Эми.
    Внезапно жизнь Бена переворачивается вверх тормашками. В город приезжает новая девчонка — Мэдисон Белл, и сразу кладет глаз на симпатичного парня. Их первые встречи довольно невинны, но она хочет большего… Соблазнение Бена — лишь начало; она становится его самой верной фанаткой и одновременно — его ночным кошмаром, когда ее навязчивость переходит в ярость, предательство и убийство…



    Страна: США
    Продолжительность: 01:24:55
    Перевод: Профессиональный (дублированный)|МОСФИЛЬМ-мастер - DVD9 R5 West Video, 2003|

    Файл
    Кодек: XviD
    Качество: WEB-DLRip
    Видео: 720x304, 23.976 fps, 2003 Kbps
    Звук: AC3, 6 ch, 448 kbps, 48 kHz
    MI
    Общее
    Полное имя : Фанатка 2002.WEB-DLRip.avi
    Формат : AVI
    Формат/Информация : Audio Video Interleave
    Размер файла : 1,46 Гбайт
    Продолжительность : 1 ч. 24 м.
    Общий поток : 2460 Кбит/сек
    Программа кодирования : VirtualDubMod 1.5.10.3 | www.virtualdub-fr.org || (build 2550/release)
    Библиотека кодирования : VirtualDubMod build 2550/release

    Видео
    Идентификатор : 0
    Формат : MPEG-4 Visual
    Профиль формата : Advanced Simple@L5
    Параметр BVOP формата : 1
    Параметр QPel формата : Нет
    Параметр GMC формата : Без точки перехода
    Параметр матрицы формата : Выборочная
    Идентификатор кодека : XVID
    Идентификатор кодека/Подсказка : XviD
    Продолжительность : 1 ч. 24 м.
    Битрейт : 2003 Кбит/сек
    Ширина : 720 пикс.
    Высота : 304 пикс.
    Соотношение сторон : 2,35:1
    Частота кадров : 23,976 кадр/сек
    Цветовое пространство : YUV
    Подвыборка цветности : 4:2:0
    Битовая глубина : 8 бит
    Тип развёртки : Прогрессивная
    Метод сжатия : С потерями
    Бит/(Пиксели*Кадры) : 0.382
    Размер потока : 1,19 Гбайт (81%)
    Библиотека кодирования : XviD 73

    Аудио
    Идентификатор : 1
    Формат : AC-3
    Формат/Информация : Audio Coding 3
    Расширение режима : CM (complete main)
    Идентификатор кодека : 2000
    Продолжительность : 1 ч. 24 м.
    Вид битрейта : Постоянный
    Битрейт : 448 Кбит/сек
    Канал(ы) : 6 канала(ов)
    Расположение каналов : Front: L C R, Side: L R, LFE
    Частота : 48,0 КГц
    Битовая глубина : 16 бит
    Метод сжатия : С потерями
    Размер потока : 272 Мбайт (18%)
    Выравнивание : Разделение по промежуткам
    Продолжительность промежутка : 42 мс. (1,00 видеокадр)
    Время предзагрузки промежутка : 500 ms
    Скриншоты


    Релиз от: Leon-masl
    Залил: leon-masl
    Размер: 1.46 GB (1566853120 Bytes)

    Фанатка / Swimfan (2002) WEB-DLRip от Leon-masl | D торрент скачать бесплатно
    загрузка...
    Рейтинг →
     (голосов: 1, оценка 5/5, голосовать можно 1 раз )

    Другие торренты по теме:

  • Фанатка / Swimfan (2002) DVD5 скачать через торрент бесплатно
  • Фанатка / Swimfan (2002) WEB-DLRip-AVC от F-Torrents скачать через торрент бесплатно
  • Фанатка / Swimfan (2002) WEB-DLRip (AVC) | D, P
  • Фанатка / Swimfan (2002) HDRip от Scarabey | D скачать через торрент бесплатно
  • ТЕМА - Просто я фанатка (2005) FLAC скачать через торрент бесплатно
  • Поклонница / Фанатка / Der Fan / Trance / Blood Groupie (1982) DVDRip | L1
  • Фанатка / Swimfan (2002) WEB-DL 720p | D
  • Фанатка / Swimfan (2002) DVDRip | D


    • Комментарии (0):

      Информация

      Информация

        Посетители, находящиеся в группе Гости, не могут оставлять комментарии в данной новости.

        ↓ Меню



        ↓ Опрос

        А Вы добавили сайт в закладки?
        Да
        Не


        Top 10 за месяц (Фильмы)