.
Авторизация | Регистрация
Хочешь лучшие торренты? Добавь свой email!
Добавить
» » Грязные игры / The Company You Keep (2012) BDRip 720p от MULTIBITS | Лицензия скачать торрент бесплатно




    Грязные игры / The Company You Keep (2012) BDRip 720p от MULTIBITS | Лицензия скачать торрент бесплатно

    Опубликовал: Админ | Дата: 27-02-2015, 11:09 | Просмотров: 242



    Информация о фильме
    Название: Грязные игры
    Оригинальное название: The Company You Keep
    Год выхода: 2012
    Жанр: Триллер
    Режиссер: Роберт Редфорд
    В ролях: Анна Кендрик, Ричард Дженкинс, Роберт Редфорд, Шайа ЛаБаф, Джули Кристи, Сэм Эллиотт, Джеки Иванко, Брендан Глисон, Терренс Ховард, Брит Марлинг

    О фильме:
    Случайная дорожная катастрофа выводит на след громкого преступления, совершенного 30 лет назад. Молодой журналист подступает к разгадке тайны темного маргинального прошлого известного адвоката.



    Выпущено: США / Voltage Pictures, Wildwood Enterprises, Brightlight Pictures
    Продолжительность: 02:04:51
    Озвучивание: Профессиональное (многоголосое) лицензия

    Файл
    Формат: MKV (x264)
    Качество: BDRip 720p
    Видео: 4700 Кбит/с, 1280x534
    Звук: AC3, 384 Кбит/с (6 ch)
    Дополнительно: Сохранены оригинальные чапреты как на Blu-Ray

    Семпл



    MI
    Format : Matroska
    Format version : Version 4 / Version 2
    File size : 4.43 GiB
    Duration : 2h 4mn
    Overall bit rate : 5 075 Kbps
    Encoded date : UTC 2013-10-17 05:16:57
    Writing application : mkvmerge v6.2.0 (;Promised Land;) built on Apr 28 2013 12:22:01
    Writing library : libebml v1.3.0 libmatroska v1.4.0

    Video
    ID : 1
    Format : AVC
    Format/Info : Advanced Video Codec
    Format profile : High@L4.1
    Format settings, CABAC : Yes
    Format settings, ReFrames : 11 frames
    Codec ID : V_MPEG4/ISO/AVC
    Duration : 2h 4mn
    Bit rate : 4 700 Kbps
    Width : 1 280 pixels
    Height : 534 pixels
    Display aspect ratio : 2.40:1
    Frame rate mode : Constant
    Frame rate : 24.000 fps
    Color space : YUV
    Chroma subsampling : 4:2:0
    Bit depth : 8 bits
    Scan type : Progressive
    Bits/(Pixel*Frame) : 0.287
    Stream size : 4.00 GiB (90%)
    Writing library : x264 core 130 r2273 b3065e6
    Encoding settings : cabac=1 / ref=11 / deblock=1:-3:-3 / analyse=0x3:0x113 / me=umh / subme=10 / psy=1 / psy_rd=1.10:0.00 / mixed_ref=1 / me_range=32 / chroma_me=1 / trellis=2 / 8x8dct=1 / cqm=0 / deadzone=21,11 / fast_pskip=0 / chroma_qp_offset=-2 / threads=6 / lookahead_threads=1 / sliced_threads=0 / nr=0 / decimate=0 / interlaced=0 / bluray_compat=0 / constrained_intra=0 / bframes=8 / b_pyramid=2 / b_adapt=2 / b_bias=0 / direct=3 / weightb=1 / open_gop=0 / weightp=2 / keyint=240 / keyint_min=24 / scenecut=40 / intra_refresh=0 / rc_lookahead=240 / rc=2pass / mbtree=1 / bitrate=4700 / ratetol=1.0 / qcomp=0.70 / qpmin=0 / qpmax=69 / qpstep=4 / cplxblur=20.0 / qblur=0.5 / ip_ratio=1.10 / aq=1:0.85
    Language : English
    Default : Yes
    Forced : Yes

    Audio
    ID : 2
    Format : AC-3
    Format/Info : Audio Coding 3
    Mode extension : CM (complete main)
    Format settings, Endianness : Big
    Codec ID : A_AC3
    Duration : 2h 4mn
    Bit rate mode : Constant
    Bit rate : 384 Kbps
    Channel count : 6 channels
    Channel positions : Front: L C R, Side: L R, LFE
    Sampling rate : 48.0 KHz
    Bit depth : 16 bits
    Compression mode : Lossy
    Stream size : 343 MiB (8%)
    Default : Yes
    Forced : No

    Menu
    00:00:00.000 : en:00:00:00.000
    00:09:49.125 : en:00:09:49.125
    00:18:38.250 : en:00:18:38.250
    00:28:55.917 : en:00:28:55.917
    00:34:04.000 : en:00:34:04.000
    00:47:14.167 : en:00:47:14.167
    00:55:48.375 : en:00:55:48.375
    01:04:25.708 : en:01:04:25.708
    01:12:10.583 : en:01:12:10.583
    01:24:34.000 : en:01:24:34.000
    01:32:49.542 : en:01:32:49.542
    01:44:39.083 : en:01:44:39.083
    02:02:08.208 : en:02:02:08.208
    Скриншоты


    Релиз от:
    Размер: 4.43 GB (4752776212 Bytes)

    Грязные игры / The Company You Keep (2012) BDRip 720p от MULTIBITS | Лицензия торрент скачать бесплатно
    загрузка...
    Рейтинг →
     (голосов: 1, оценка 4/5, голосовать можно 1 раз )

    Другие торренты по теме:

  • Грязные игры / The Company You Keep (2012) HDRip | Чистый звук
  • Грязные игры / The Company You Keep (2012) BDRip 1080p | Лицензия скачать через торрент бесплатно
  • Грязные игры / The Company You Keep (2012) HDRip от INTERCINEMA | Лицензия скачать через торрент бесплатно
  • Грязные игры / The Company You Keep (2012) HDRip | Лицензия
  • Грязные игры / The Company You Keep (2012) HDRip от Scarabey | P | Лицензия скачать через торрент бесплатно
  • Грязные игры / The Company You Keep (2012) BDRip-AVC от HELLYWOOD | P | Лицензия скачать через торрент бесплатно
  • Грязные игры / The Company You Keep (2012) DVD5 R5 от Youtracker | P | лицензия скачать через торрент бесплатно
  • Грязные игры / The Company You Keep (2012) BDRip 720p от leonardo 59 Scarabey | Лицензия скачать через торрент бесплатно


    • Комментарии (0):

      Информация

      Информация

        Посетители, находящиеся в группе Гости, не могут оставлять комментарии в данной новости.

        ↓ Меню



        ↓ Опрос

        А Вы добавили сайт в закладки?
        Да
        Не


        Top 10 за месяц (Фильмы)