.
Авторизация | Регистрация
Хочешь лучшие торренты? Добавь свой email!
Добавить
» » Ночная красавица / The Forbidden Girl (2013) BDRip 1080p от MULTIBITS | L2 скачать торрент бесплатно




    Ночная красавица / The Forbidden Girl (2013) BDRip 1080p от MULTIBITS | L2 скачать торрент бесплатно

    Опубликовал: Админ | Дата: 27-02-2015, 11:09 | Просмотров: 245



    Информация о фильме
    Название: Ночная красавица
    Оригинальное название: The Forbidden Girl
    Год выхода: 2013
    Жанр: Ужасы, триллер, мистика, фэнтези
    Режиссер: Тилль Хастрайтер
    В ролях: Питер Гадиот, Ютта-Мерле Бёрнсен, Клаус Тангэ, Жанетт Хайн, Марк Бишофф, Роджер Теб, Джесси Инман, Манон Кайл, Йорг Винсент Малотки, Тадэуш Мейлингер

    О фильме:
    Молодой человек по имени Тоби при странных и трагических обстоятельствах теряет свою возлюбленную Эсму. Он уверен, что причиной ее смерти стало появление некоего дьявольского существа. Произошедшее так его шокирует, что он попадает в психиатрическую клинику. Позже, когда Тоби выходит оттуда, ему предлагают работу в загородном поместье у одной старой женщины. Сама женщина очень слаба, поэтому всеми ее делами заведует дворецкий. Эта парочка выглядит несколько пугающей, но условия работы выгодные и Тоби соглашается. Как потом выясняется, в доме есть еще один жилец — молодая девушка, страдающая редкой болезнью — аллергией на дневной свет. Она заперта в специальной комнате. Что-то в ней напоминает ему об Эсме. Но кто же на самом деле эти люди к которым он попал?



    Выпущено: Германия / European Motion Pictures
    Продолжительность: 01:45:18
    Озвучивание: Любительское (двухголосое) DeadSno den904

    Файл
    Формат: MKV (x264)
    Качество: BDRip 1080p
    Видео: 5449 Кбит/с, 1920x1080
    Звук: АС3, 192 Кбит/с (2 ch)

    Семпл



    MI
    Format : Matroska
    Format version : Version 4 / Version 2
    File size : 4.23 GiB
    Duration : 1h 45mn
    Overall bit rate : 5 756 Kbps
    Encoded date : UTC 2013-10-17 10:52:39
    Writing application : mkvmerge v6.2.0 (;Promised Land;) built on Apr 28 2013 12:22:01
    Writing library : libebml v1.3.0 libmatroska v1.4.0

    Video
    ID : 1
    Format : AVC
    Format/Info : Advanced Video Codec
    Format profile : High@L4.1
    Format settings, CABAC : Yes
    Format settings, ReFrames : 4 frames
    Codec ID : V_MPEG4/ISO/AVC
    Duration : 1h 45mn
    Bit rate : 5 449 Kbps
    Width : 1 920 pixels
    Height : 1 080 pixels
    Display aspect ratio : 16:9
    Frame rate mode : Constant
    Frame rate : 23.976 fps
    Color space : YUV
    Chroma subsampling : 4:2:0
    Bit depth : 8 bits
    Scan type : Progressive
    Bits/(Pixel*Frame) : 0.110
    Stream size : 4.01 GiB (95%)
    Writing library : x264 core 135 r2345 f0c1c53
    Encoding settings : cabac=1 / ref=4 / deblock=1:-1:-1 / analyse=0x3:0x133 / me=umh / subme=7 / psy=1 / psy_rd=1.00:0.15 / mixed_ref=1 / me_range=16 / chroma_me=1 / trellis=1 / 8x8dct=1 / cqm=0 / deadzone=21,11 / fast_pskip=0 / chroma_qp_offset=-3 / threads=9 / lookahead_threads=1 / sliced_threads=0 / nr=0 / decimate=1 / interlaced=0 / bluray_compat=0 / constrained_intra=0 / bframes=3 / b_pyramid=2 / b_adapt=1 / b_bias=0 / direct=1 / weightb=1 / open_gop=0 / weightp=2 / keyint=250 / keyint_min=23 / scenecut=40 / intra_refresh=0 / rc_lookahead=40 / rc=crf / mbtree=1 / crf=20.0 / qcomp=0.60 / qpmin=0 / qpmax=69 / qpstep=4 / ip_ratio=1.40 / aq=1:1.00
    Default : Yes
    Forced : No

    Audio
    ID : 2
    Format : AC-3
    Format/Info : Audio Coding 3
    Mode extension : CM (complete main)
    Format settings, Endianness : Big
    Codec ID : A_AC3
    Duration : 1h 45mn
    Bit rate mode : Constant
    Bit rate : 192 Kbps
    Channel count : 2 channels
    Channel positions : Front: L R
    Sampling rate : 48.0 KHz
    Bit depth : 16 bits
    Compression mode : Lossy
    Stream size : 145 MiB (3%)
    Title : DeadSno den904
    Language : Russian
    Default : Yes
    Forced : Yes
    Скриншоты



    Релиз от:
    Размер: 4.23 GB (4546405234 Bytes)

    Ночная красавица / The Forbidden Girl (2013) BDRip 1080p от MULTIBITS | L2 торрент скачать бесплатно
    загрузка...
    Рейтинг →
     (голосов: 1, оценка 4/5, голосовать можно 1 раз )

    Другие торренты по теме:

  • Ночная красавица / The Forbidden Girl (2013) BDRip 720p | L2
  • Ночная красавица / The Forbidden Girl (2013) HDRip | L2
  • Запретная девушка / Ночная красавица / The Forbidden Girl (2013) HDRip | НТВ скачать через торрент бесплатно


    • Комментарии (0):

      Информация

      Информация

        Посетители, находящиеся в группе Гости, не могут оставлять комментарии в данной новости.

        ↓ Меню



        ↓ Опрос

        А Вы добавили сайт в закладки?
        Да
        Не


        Top 10 за месяц (Фильмы)