.
Авторизация | Регистрация
Хочешь лучшие торренты? Добавь свой email!
Добавить
» » Не беспокоить / Do Not Disturb (2013) WEB-DLRip от BitTracker скачать торрент бесплатно




    Не беспокоить / Do Not Disturb (2013) WEB-DLRip от BitTracker скачать торрент бесплатно

    Опубликовал: Админ | Дата: 27-02-2015, 11:09 | Просмотров: 366



    Информация о фильме
    Название: Не беспокоить
    Оригинальное название: Do Not Disturb
    Год выхода: 2013
    Жанр: ужасы, триллер
    Режиссер: Б.С. Фертни / B.C. Furtney
    В ролях: Кори Хэйм, Стивен Джеффрис, Тиффани Шепис, Эзра Баззингтон, Джереми Мун, Даниэль Фортуэнглер, Джеймс Грабовски, Сэм Никотеро, Энтони Коллиано, Лаура Ли

    О фильме:
    Сценарист приглашает импрессарио к себе в квартиру, расположенную у черта на куличках и устраивает ему камеру пыток, но делает он это неспроста ...




    Страна: США
    Продолжительность: 01:27:42
    Перевод: Любительское (одноголосое) den904

    Файл
    Кодек: XviD
    Качество: WEB-DLRip (Исх. WEB-DL 720p)
    Видео: 720x304 (2.37:1), 23.976 fps, XviD build 50 ~2142 kbps avg, 0.41 bit/pixel
    Звук: 48 kHz, AC3 Dolby Digital, 2/0 (L,R) ch, ~192.00 kbps avg
    Субтитры: нет

    Семпл

    MediaInfo

    Общее
    Полное имя : S:ФильмыНе беспокоить. 2013. WEB-DLRip (AleksSin).avi
    Формат : AVI
    Формат/Информация : Audio Video Interleave
    Размер файла : 1,44 Гбайт
    Продолжительность : 1 ч. 27 м.
    Общий поток : 2344 Кбит/сек
    Программа кодирования : VirtualDubMod 1.5.10.3 | www.virtualdub-fr.org || (build 2550/release)
    Библиотека кодирования : VirtualDubMod build 2550/release

    Видео
    Идентификатор : 0
    Формат : MPEG-4 Visual
    Профиль формата : Advanced Simple@L5
    Параметр BVOP формата : 2
    Параметр QPel формата : Нет
    Параметр GMC формата : Без точки перехода
    Параметр матрицы формата : Default (H.263)
    Идентификатор кодека : XVID
    Идентификатор кодека/Подсказка : XviD
    Продолжительность : 1 ч. 27 м.
    Битрейт : 2142 Кбит/сек
    Ширина : 720 пикс.
    Высота : 304 пикс.
    Соотношение сторон : 2,35:1
    Частота кадров : 23,976 кадр/сек
    Цветовое пространство : YUV
    Подвыборка цветности : 4:2:0
    Битовая глубина : 8 бит
    Тип развёртки : Прогрессивная
    Метод сжатия : С потерями
    Бит/(Пиксели*Кадры) : 0.408
    Размер потока : 1,31 Гбайт (91%)
    Библиотека кодирования : XviD 1.2.1 (UTC 2008-12-04)

    Аудио
    Идентификатор : 1
    Формат : AC-3
    Формат/Информация : Audio Coding 3
    Расширение режима : CM (complete main)
    Идентификатор кодека : 2000
    Продолжительность : 1 ч. 27 м.
    Вид битрейта : Постоянный
    Битрейт : 192 Кбит/сек
    Каналы : 2 канала
    Расположение каналов : Front: L R
    Частота : 48,0 КГц
    Битовая глубина : 16 бит
    Метод сжатия : С потерями
    Размер потока : 120 Мбайт (8%)
    Выравнивание : Разделение по промежуткам
    Продолжительность промежутка : 42 мс. (1,00 видеокадр)
    Время предзагрузки промежутка : 500 ms

    Скриншоты


    Релиз от:
    Залил: AleksSin
    Размер: 1.44 GB (1541869568 Bytes)

    Не беспокоить / Do Not Disturb (2013) WEB-DLRip от BitTracker торрент скачать бесплатно
    загрузка...
    Рейтинг →
     (голосов: 1, оценка 4/5, голосовать можно 1 раз )

    Другие торренты по теме:

  • Не беспокоить / Do Not Disturb (2013) WEBRip-AVC
  • Нечестных прошу не беспокоить / Fei cheng wu rao (2008) BDRip-AVC от HQCLUB | P2


    • Комментарии (0):

      Информация

      Информация

        Посетители, находящиеся в группе Гости, не могут оставлять комментарии в данной новости.

        ↓ Меню



        ↓ Опрос

        А Вы добавили сайт в закладки?
        Да
        Не


        Top 10 за месяц (Фильмы)