.
Авторизация | Регистрация
Хочешь лучшие торренты? Добавь свой email!
Добавить
» » Мой лучший друг / Mon meilleur ami (2006) BDRip от MediaClub | P скачать через торрент бесплатно




    Мой лучший друг / Mon meilleur ami (2006) BDRip от MediaClub | P скачать через торрент бесплатно

    Опубликовал: Админ | Дата: 27-02-2015, 11:09 | Просмотров: 314



    Информация о фильме
    Название: Мой лучший друг
    Оригинальное название: Mon meilleur ami
    Год выхода: 2006
    Жанр: Комедия
    Режиссер: Патрис Леконт / Patrice Leconte
    В ролях: Даниель Отой, Дани Бун, Жюли Гайе, Жюли Дюран, Жак Мату, Мари Пийе, Элизабет Буржин, Анри Гарсен, Жак Списсер, Филипп дю Жанеран, Фабьен Чодат

    О фильме:
    Франсуа - успешный антиквар, ведущий роскошный образ жизни. Он высокомерен, эгоцетричен и... одинок. Катрин, его бизнес-партнер, предлагает пари: если Франсуа сможет найти друзей, она уступит ему очень ценную греческую вазу. Теперь у Франсуа есть всего несколько дней, чтобы проштудировать свою записную книжку и представить Катрин своего лучшего друга.



    MPAA: PG-13 - Детям до 13 лет просмотр не желателен


    Страна: Франция / Canal fr, Cin? Cin?mas, Exception Wild Bunch, Fid?lit? Productions, Lucky Red, TF1 Films Production, Virtual Films
    Продолжительность: 01:34:42
    Перевод: Профессиональный (многоголосый, закадровый)

    Файл
    Кодек: XviD
    Качество: BDRip
    Видео: XviD, 720x304 (2.35:1), 1736 kbps, 24 fps, 0,331 bpp
    Звук: AC3 / 5.1 / 48 kHz / 448 kbps / 16 bit

    Семпл

    Media Info

    Format : AVI
    Format/Info : Audio Video Interleave
    File size : 1.45 GiB
    Duration : 1h 34mn
    Overall bit rate : 2 194 Kbps
    Movie name : Moi.lychii.drug.2006.XviD.АСЗ.BRip.-MediaClub
    Director : -=MediaClub-Odessit=-
    Writing application : VirtualDubMod 1.5.10.3 (build 2550/release)

    Video
    ID : 0
    Format : MPEG-4 Visual
    Format profile : Advanced Simple@L5
    Format settings, BVOP : 1
    Format settings, QPel : No
    Format settings, GMC : No warppoints
    Format settings, Matrix : Custom
    Codec ID : XVID
    Codec ID/Hint : XviD
    Duration : 1h 34mn
    Bit rate : 1 737 Kbps
    Width : 720 pixels
    Height : 304 pixels
    Display aspect ratio : 2.35:1
    Frame rate : 24.000 fps
    Color space : YUV
    Chroma subsampling : 4:2:0
    Bit depth : 8 bits
    Scan type : Progressive
    Compression mode : Lossy
    Bits/(Pixel*Frame) : 0.331
    Stream size : 1.15 GiB (79%)
    Writing library : XviD 73

    Audio
    ID : 1
    Format : AC-3
    Format/Info : Audio Coding 3
    Mode extension : CM (complete main)
    Codec ID : 2000
    Duration : 1h 34mn
    Bit rate mode : Constant
    Bit rate : 448 Kbps
    Channel(s) : 6 channels
    Channel positions : Front: L C R, Side: L R, LFE
    Sampling rate : 48.0 KHz
    Bit depth : 16 bits
    Compression mode : Lossy
    Stream size : 303 MiB (20%)
    Alignment : Split accross interleaves
    Interleave, duration : 42 ms (1.00 video frame)
    Interleave, preload duration : 500 ms



    Скриншоты


    Релиз от:
    Размер: 1.45 GB (1558353920 Bytes)

    Мой лучший друг / Mon meilleur ami (2006) BDRip от MediaClub | P скачать через торрент бесплатно
    загрузка...
    Рейтинг →
     (голосов: 1, оценка 5/5, голосовать можно 1 раз )

    Другие торренты по теме:

  • Мой лучший друг / Mon meilleur ami (2006) DVDRip-AVC от RG Jolly Roger
  • Мой лучший друг / Mon meilleur ami (2006) BDRip 1080p от MediaClub | P
  • Мой лучший друг / Mon meilleur ami (2006) BDRip 720p by msltel | P скачать через торрент бесплатно
  • Мой лучший любовник / Prime (2005) BDRip-AVC от Rulya74 скачать через торрент бесплатно
  • Мой лучший любовник / Prime (2005) HDRip от Scarabey скачать через торрент бесплатно
  • Мой лучший роман / A Novel Romance (2015) HDTVRip | L1
  • Мой лучший враг (2017) WEB-DL 720p от Getty
  • Мой лучший враг (2017) WEB-DL 1080p от Files-x


    • Комментарии (0):

      Информация

      Информация

        Посетители, находящиеся в группе Гости, не могут оставлять комментарии в данной новости.

        ↓ Меню



        ↓ Опрос

        А Вы добавили сайт в закладки?
        Да
        Не


        Top 10 за месяц (Фильмы)