.
Авторизация | Регистрация
Хочешь лучшие торренты? Добавь свой email!
Добавить
» » Самсон и Далила / Samson and Delilah (1949) BDRip от msltel | P скачать через торрент бесплатно




    Самсон и Далила / Samson and Delilah (1949) BDRip от msltel | P скачать через торрент бесплатно

    Опубликовал: Админ | Дата: 27-02-2015, 11:09 | Просмотров: 414



    Название: Самсон и Далила
    Оригинальное название: Samson and Delilah
    Год выпуска: 1949
    Жанр: Боевик, драма, мелодрама, приключения, история
    Выпущено: США, Paramount Pictures
    Режиссер: Сесил Блаунт Де Милль
    В ролях: Виктор Мэтьюр, Хеди Ламарр, Джордж Сандерс, Анджела Лэнсбери, Расс Тэмблин, Генри Уилкоксон, Олайв Диринг, Фэй Холден, Джулия Фэй, Уильям Фарнум, Лэйн Чандлер, Морони Олсен, Фрэнсис МакДоналд, Джон Мильян, Артур К. Брайан, Кейси Роджерс, Виктор Варкони, Джон Пэрриш, Фрэнк Уилкокс, Расселл Хикс, Бойд Дэвис, Фриц Лейбер, Майк Мазурки, Дэвисон Кларк, Джордж Ривз, Педро Де Кордоба, Фрэнк Рейхер, Колин Тэпли

    О фильме: Самсон — израильский богатырь, прославившийся в войнах с филистимлянами. Однажды на него напал лев, и Самсон растерзал его голыми руками. Много раз враги израильтян, филистимляне, покушались убить его, но всегда безуспешно. Любовь к филистимлянке Далиле погубила Самсона. Узнав, что сила героя заключается в его длинных волосах, она во время сна остригла ему волосы и передала в руки филистимлян. Язычники, выколов глаза, посадили Самсона в темницу. Согласно Ветхому Завету, однажды мучители вывели Самсона на всенародное поругание в свой языческий храм. Самсон попросил отрока, водившего его за руку, подвести его к двум колоннам, на которых держалось всё здание, чтобы прислониться к ним. Помолившись Богу, он уперся в столбы руками и сдвинул их с места. Здание обрушилось. Под развалинами здания погибли все филистимляне, бывшие там, и сам Самсон.

    Качество: BDRip
    Видео: XviD, 2162 Кбит/с, 704x512
    Аудио: Русский, английский (AC3, 2 ch, 192 Кбит/с)
    Размер: 2.39 ГБ
    Продолжительность: 02:13:49
    Перевод: Профессиональный многоголосый (ТВЦ)
    Субтитры: Английские

    Сравнение с исходником



    Награды
    Оскар, 1951 год
    Победитель (2):
    Лучшая работа художника (цветные фильмы)
    Лучшая работа художника по костюмам (цветные фильмы)

    Номинации (3):
    Лучшая работа оператора (цветные фильмы)
    Лучшие спецэффекты
    Лучший саундтрек для драматических/комедийных картин

    Золотой глобус, 1951 год
    Номинации (1):
    Лучшая работа оператора (цветные фильмы)
    MediaInfo
    Общее
    Полное имя : E:VideoSamson.i.Dalila.1949.XviD.BDRipSamson.i.Dalila.1949.eng.srt
    Размер файла : 242 Кбайт

    Общее
    Полное имя : E:VideoSamson.i.Dalila.1949.XviD.BDRipSamson.i.Dalila.1949.Original.eng.ac3
    Формат : AC-3
    Формат/Информация : Audio Coding 3
    Размер файла : 184 Мбайт
    Продолжительность : 2 ч. 13 м.
    Режим общего битрейта : Постоянный
    Общий поток : 192 Кбит/сек

    Аудио
    Формат : AC-3
    Формат/Информация : Audio Coding 3
    Расширение режима : CM (complete main)
    Параметр Endianness формата : Big
    Продолжительность : 2 ч. 13 м.
    Вид битрейта : Постоянный
    Битрейт : 192 Кбит/сек
    Каналы : 2 канала
    Расположение каналов : Front: L R
    Частота : 48,0 КГц
    Битовая глубина : 16 бит
    Метод сжатия : С потерями
    Размер потока : 184 Мбайт (100%)

    Общее
    Полное имя : E:VideoSamson.i.Dalila.1949.XviD.BDRipSamson.i.Dalila.1949.XviD.BDRip.avi
    Формат : AVI
    Формат/Информация : Audio Video Interleave
    Профиль формата : OpenDML
    Размер файла : 2,21 Гбайт
    Продолжительность : 2 ч. 13 м.
    Общий поток : 2367 Кбит/сек
    Программа кодирования : VirtualDubMod 1.5.10.2 (build 2540/release)
    Библиотека кодирования : VirtualDubMod build 2540/release

    Видео
    Идентификатор : 0
    Формат : MPEG-4 Visual
    Профиль формата : Advanced Simple@L5
    Параметр BVOP формата : 1
    Параметр QPel формата : Нет
    Параметр GMC формата : Без точки перехода
    Параметр матрицы формата : Default (H.263)
    Режим смешивания : Сжатый битовый поток
    Идентификатор кодека : XVID
    Идентификатор кодека/Подсказка : XviD
    Продолжительность : 2 ч. 13 м.
    Битрейт : 2162 Кбит/сек
    Ширина : 704 пикселя
    Высота : 512 пикселей
    Соотношение сторон : 1,375
    Частота кадров : 23,976 кадра/сек
    Цветовое пространство : YUV
    Субдискретизация насыщенности : 4:2:0
    Битовая глубина : 8 бит
    Тип развёртки : Прогрессивная
    Метод сжатия : С потерями
    Бит/(Пиксели*Кадры) : 0.250
    Размер потока : 2,02 Гбайт (91%)
    Библиотека кодирования : XviD 1.2.1 (UTC 2008-12-04)

    Аудио
    Идентификатор : 1
    Формат : AC-3
    Формат/Информация : Audio Coding 3
    Расширение режима : CM (complete main)
    Параметр Endianness формата : Big
    Идентификатор кодека : 2000
    Продолжительность : 2 ч. 13 м.
    Вид битрейта : Постоянный
    Битрейт : 192 Кбит/сек
    Каналы : 2 канала
    Расположение каналов : Front: L R
    Частота : 48,0 КГц
    Битовая глубина : 16 бит
    Метод сжатия : С потерями
    Размер потока : 184 Мбайт (8%)
    Выравнивание : Разделение по промежуткам
    Продолжительность промежутка : 42 мс. (1,00 видеокадр)
    Время предзагрузки промежутка : 500 мс.
    Скриншоты




    Залил: msltel
    Размер: 2.39 GB (2568324022 Bytes)

    Самсон и Далила / Samson and Delilah (1949) BDRip от msltel | P скачать через торрент бесплатно
    загрузка...
    Рейтинг →
     (голосов: 1, оценка 5/5, голосовать можно 1 раз )

    Другие торренты по теме:

  • Самсон и Далила / Samson and Delilah (1949) BDRip 720p от msltel | P скачать через торрент бесплатно
  • Самсон и Далила / Samson and Delilah (1949) BDRip 1080p от msltel | P скачать через торрент бесплатно
  • Самсон и Далила / Samson and Delilah (1949) BDRip-AVC | P скачать через торрент бесплатно


    • Комментарии (0):

      Информация

      Информация

        Посетители, находящиеся в группе Гости, не могут оставлять комментарии в данной новости.

        ↓ Меню



        ↓ Опрос

        А Вы добавили сайт в закладки?
        Да
        Не


        Top 10 за месяц (Фильмы)