.
Авторизация | Регистрация
Хочешь лучшие торренты? Добавь свой email!
Добавить
» » Лодка / Подводная лодка / Подлодка / Das Boot (1981) BDRip от Youtracker скачать через торрент бесплатно




    Лодка / Подводная лодка / Подлодка / Das Boot (1981) BDRip от Youtracker скачать через торрент бесплатно

    Опубликовал: Админ | Дата: 27-02-2015, 11:09 | Просмотров: 399



    Страна: Германия (ФРГ)
    Жанр: боевик, драма, приключения, военный, история

    Год выпуска: 1981

    Продолжительность: 03:28:20

    Перевод: Профессиональный (многоголосый, закадровый) Позитив / Карусель

    Режиссер: Вольфганг Петерсен / Wolfgang Petersen

    В ролях: Юрген Прохнов (Capt.-Lt. Henrich Lehmann-Willenbrock - Der Alte), Херберт Грёнемайер (Lt. Werner - Correspondent), Клаус Веннеманн (Chief Engineer Fritz Grade - Der Leitende-Der LI), Хабертус Бенгш (1st Lieutenant - Number One-1WO), Мартин Земмельрогге (2nd Lieutenant - 2WO), Бернд Таубер (Kriechbaum - Chief Quartermaster-Navigator), Эрвин Ледер (Johann), Мартин Май (Ullman), Хайнц Хёниг (Hinrich), Уве Оксенкнехт (Chief Bosun), Клод-Оливер Рудольф (Ario), Ян Федер (Pilgrim)

    Описание: Осень 1941 года. Немецкая подводная лодка отправляется в Атлантический океан, место противостояния германского и английского флотов. Жизнь по строгому распорядку, учебные тревоги, воспоминания о семьях и любимых девушках, соленые мужские шуточки... Скоро всё это закончится. Потому что впереди - ад и никакой надежды на спасение...



    MPAA: R - Лицам до 17 лет обязательно присутствие взрослого

    Качество: BDRip | sample
    Контейнер: AVI
    Видео: XviD, 704x384 (16:9), 1295 kbps, 23,976 fps, 0,200 bpp
    Аудио: AC3 / 2.0 / 48 kHz / 192 kbps / 16 bit

    Скриншоты

    Media Info

    Общее
    Полное имя : E:My_ripDas Boot.1981.BDRip.Youtracker.MVO.avi
    Формат : AVI
    Формат/Информация : Audio Video Interleave
    Профиль формата : OpenDML
    Размер файла : 2,18 Гбайт
    Продолжительность : 3 ч. 28 м.
    Общий поток : 1500 Кбит/сек
    Программа кодирования : VirtualDubMod 1.5.10.3 | www.virtualdub-fr.org || (build 2550/release)
    Библиотека кодирования : VirtualDubMod build 2550/release

    Видео
    Идентификатор : 0
    Формат : MPEG-4 Visual
    Профиль формата : Advanced Simple@L5
    Параметр BVOP формата : 2
    Параметр QPel формата : Нет
    Параметр GMC формата : Без точки перехода
    Параметр матрицы формата : Выборочная
    Идентификатор кодека : XVID
    Идентификатор кодека/Подсказка : XviD
    Продолжительность : 3 ч. 28 м.
    Битрейт : 1296 Кбит/сек
    Ширина : 704 пикселя
    Высота : 384 пикселя
    Соотношение сторон : 1,85:1
    Частота кадров : 23,976 кадра/сек
    Цветовое пространство : YUV
    Субдискретизация насыщенности : 4:2:0
    Битовая глубина : 8 бит
    Тип развёртки : Прогрессивная
    Метод сжатия : С потерями
    Бит/(Пиксели*Кадры) : 0.200
    Размер потока : 1,89 Гбайт (86%)
    Библиотека кодирования : XviD 65

    Аудио
    Идентификатор : 1
    Формат : AC-3
    Формат/Информация : Audio Coding 3
    Расширение режима : CM (complete main)
    Параметр Endianness формата : Big
    Идентификатор кодека : 2000
    Продолжительность : 3 ч. 28 м.
    Вид битрейта : Постоянный
    Битрейт : 192 Кбит/сек
    Каналы : 2 канала
    Расположение каналов : Front: L R
    Частота : 48,0 КГц
    Битовая глубина : 16 бит
    Метод сжатия : С потерями
    Размер потока : 286 Мбайт (13%)
    Выравнивание : Разделение по промежуткам
    Продолжительность промежутка : 42 мс. (1,00 видеокадр)
    Время предзагрузки промежутка : 500 мс.


    Раздача от:
    Залил: IMHO TEP
    Размер: 2.18 GB (2343471104 Bytes)

    Лодка / Подводная лодка / Подлодка / Das Boot (1981) BDRip от Youtracker скачать через торрент бесплатно
    загрузка...
    Рейтинг →
     (голосов: 1, оценка 5/5, голосовать можно 1 раз )

    Другие торренты по теме:

  • Подводная лодка / Das Boot (1981) BDRip 1080p | Directors Cut
  • OST - Подводная лодка / Das Boot (1997) MP3
  • Атомная подводная лодка / The Atomic Submarine (1960) DVDRip от GalVid
  • Атомная подводная лодка / The Atomic Submarine (1959) DVDRip-AVC от F-Torrents
  • Подводная лодка / Das Boot (1981) BDRip-AVC | Director`s Cut скачать через торрент бесплатно
  • Подводная лодка / Das Boot (1985) DVDRip-AVC | Полная версия скачать через торрент бесплатно
  • Подводная лодка [Режиссёрская версия] / Das Boot [Directors Cut]
  • Подводная лодка / Das Boot (1985) DVDRip от KinoRay Sheikn | Полная версия | P


    • Комментарии (0):

      Информация

      Информация

        Посетители, находящиеся в группе Гости, не могут оставлять комментарии в данной новости.

        ↓ Меню



        ↓ Опрос

        А Вы добавили сайт в закладки?
        Да
        Не


        Top 10 за месяц (Фильмы)