.
Авторизация | Регистрация
Хочешь лучшие торренты? Добавь свой email!
Добавить
» » Виртуальность / Virtuosity (1995) BDRip от MediaClub | P, P2, A скачать через торрент бесплатно




    Виртуальность / Virtuosity (1995) BDRip от MediaClub | P, P2, A скачать через торрент бесплатно

    Опубликовал: Админ | Дата: 27-02-2015, 11:09 | Просмотров: 291



    Информация о фильме
    Название: Виртуальность
    Оригинальное название: Virtuosity
    Год выхода: 1995
    Жанр: Боевик, фантастика
    Режиссер: Бретт Леонард / Brett Leonard
    В ролях: Дензел Вашингтон, Келли Линч, Расселл Кроу, Стивен Спинелла, Уильям Форсайт, Луиз Флетчер, Уильям Фихтнер, Костас Мэндилор, Кевин Дж. О’Коннор, Кейли Куоко

    О фильме:
    Его имя Сид 6.7. Он создан из двухсот отборных подонков, негодяев и психопатов, наделен интеллектом и хитростью самых знаменитых серийных убийц в истории человечества. Сид 6,7 был специально придуман, как совершенное воплощение зла и жестокости, для особой компьютерной программы, помогающей полицейским ловить преступников. Но случилось непоправимое. Сиду удалось сбежать из кибернетического пространства в реальный мир. Идеальный преступник был на свободе и жаждал преподать людям страшный урок… Единственным человеком, который встал на пути компьютерного садиста, оказался полицейский по имени Паркер Барнис. Но офицеру Барнису всегда приходилось иметь дело с бандитами из плоти и крови. Сможет ли он совладать с неуязвимым Сидом 6,7?..



    MPAA: R - Лицам до 17 лет обязательно присутствие взрослого

    Страна: США / Paramount Pictures
    Продолжительность: 01:45:54
    Перевод: Профессиональный многоголосый, профессиональный двухголосый, авторский одноголосый

    Файл
    Кодек: XviD
    Качество: BDRip
    Видео: XviD, 720x304 (2.35:1), 1917 kbps, 23,976 fps, 0,365 bpp
    Аудио №1: AC3 / 2.0 / 48 kHz / 192 kbps / 16 bit (СТС)
    Аудио №2: AC3 / 2.0 / 48 kHz / 192 kbps / 16 bit (НТВ )
    Аудио №3: AC3 / 5.1 / 48 kHz / 448 kbps / 16 bit (Ю. Живов)

    Семпл

    Media Info

    Format : AVI
    Format/Info : Audio Video Interleave
    Format profile : OpenDML
    File size : 2.05 GiB
    Duration : 1h 45mn
    Overall bit rate : 2 774 Kbps
    Movie name : Virtuosity.1995.XviD.BDRip.-MediaClub
    Director : -=MediaClub-Odessit=-
    Writing application : VirtualDubMod 1.5.10.3 (build 2550/release)
    Writing library : VirtualDubMod build 2550/release

    Video
    ID : 0
    Format : MPEG-4 Visual
    Format profile : Advanced Simple@L5
    Format settings, BVOP : 1
    Format settings, QPel : No
    Format settings, GMC : No warppoints
    Format settings, Matrix : Custom
    Codec ID : XVID
    Codec ID/Hint : XviD
    Duration : 1h 45mn
    Bit rate : 1 917 Kbps
    Width : 720 pixels
    Height : 304 pixels
    Display aspect ratio : 2.35:1
    Frame rate : 23.976 fps
    Color space : YUV
    Chroma subsampling : 4:2:0
    Bit depth : 8 bits
    Scan type : Progressive
    Compression mode : Lossy
    Bits/(Pixel*Frame) : 0.365
    Stream size : 1.42 GiB (69%)
    Writing library : XviD 73

    Audio #1
    ID : 1
    Format : AC-3
    Format/Info : Audio Coding 3
    Mode extension : CM (complete main)
    Codec ID : 2000
    Duration : 1h 45mn
    Bit rate mode : Constant
    Bit rate : 192 Kbps
    Channel(s) : 2 channels
    Channel positions : Front: L R
    Sampling rate : 48.0 KHz
    Bit depth : 16 bits
    Compression mode : Lossy
    Stream size : 145 MiB (7%)
    Alignment : Split accross interleaves
    Interleave, duration : 42 ms (1.00 video frame)
    Interleave, preload duration : 500 ms

    Audio #2
    ID : 2
    Format : AC-3
    Format/Info : Audio Coding 3
    Mode extension : CM (complete main)
    Codec ID : 2000
    Duration : 1h 45mn
    Bit rate mode : Constant
    Bit rate : 192 Kbps
    Channel(s) : 2 channels
    Channel positions : Front: L R
    Sampling rate : 48.0 KHz
    Bit depth : 16 bits
    Compression mode : Lossy
    Stream size : 145 MiB (7%)
    Alignment : Split accross interleaves
    Interleave, duration : 42 ms (1.00 video frame)
    Interleave, preload duration : 500 ms

    Audio #3
    ID : 3
    Format : AC-3
    Format/Info : Audio Coding 3
    Mode extension : CM (complete main)
    Codec ID : 2000
    Duration : 1h 45mn
    Bit rate mode : Constant
    Bit rate : 448 Kbps
    Channel(s) : 6 channels
    Channel positions : Front: L C R, Side: L R, LFE
    Sampling rate : 48.0 KHz
    Bit depth : 16 bits
    Compression mode : Lossy
    Stream size : 339 MiB (16%)
    Alignment : Split accross interleaves
    Interleave, duration : 42 ms (1.00 video frame)
    Interleave, preload duration : 500 ms



    Скриншоты


    Релиз от:
    Размер: 2.05 GB (2203133952 Bytes)

    Виртуальность / Virtuosity (1995) BDRip от MediaClub | P, P2, A скачать через торрент бесплатно
    загрузка...
    Рейтинг →
     (голосов: 1, оценка 4/5, голосовать можно 1 раз )

    Другие торренты по теме:

  • Виртуальность / Виртуозность / Virtuosity (1995) HDTVRip от Leon-masl | A, P2
  • Виртуальность / Виртуозность / Virtuosity (1995) BDRip 720p от MediaClub | P, P2, A скачать через торрент бесплатно
  • Виртуальность / Виртуозность / Virtuosity (1995) BDRemux 1080p от MediaClub | P, P2, A скачать через торрент бесплатно
  • Виртуозность / Виртуальность / Virtuosity (1995) BDRip от HQCLUB
  • Виртуозность / Виртуальность / Убийца виртуоз / Virtuosity (1995) HDRip от Scarabey | P
  • Виртуозность / Виртуальность / Убийца виртуоз / Virtuosity (1995) HDRip от Scarabey | P скачать через торрент бесплатно


    • Комментарии (0):

      Информация

      Информация

        Посетители, находящиеся в группе Гости, не могут оставлять комментарии в данной новости.

        ↓ Меню



        ↓ Опрос

        А Вы добавили сайт в закладки?
        Да
        Не


        Top 10 за месяц (Фильмы)