.
Авторизация | Регистрация
Хочешь лучшие торренты? Добавь свой email!
Добавить
» » Бархатные ручки / Mani di velluto (1979) DVDRip от Youtracker скачать через торрент бесплатно




    Бархатные ручки / Mani di velluto (1979) DVDRip от Youtracker скачать через торрент бесплатно

    Опубликовал: Админ | Дата: 27-02-2015, 11:09 | Просмотров: 387


    Страна: Италия
    Производство: Capital Films
    Жанр: мелодрама, комедия
    Год выпуска: 1979
    Продолжительность: 01:37:03

    Перевод: Профессиональный (многоголосый закадровый)
    Оригинальная аудиодорожка: нет
    Cубтитры: нет

    Режиссер: Франко Кастеллано / Franco Castellano, Джузеппе Моччиа / Giuseppe Moccia

    В ролях:
    Адриано Челентано /Adriano Celentano/, Элеонора Джорджи /Eleonora Giorgi/, Джон Шарп, Ольга Карлатос, Джино Сантерколе /Gino Santercole/, Момо Диттоньо, Аниа Пиерони, Джанкарло Тондинелли...

    Описание:
    Инженер Гвидо Квиллер разбогател на продаже бронированных стёкол для ювелирных магазинов, но тем самым разозлил страховые компании и грабителей. Во время погони за возлюбленной, которой он хотел вернуть забытую сумочку, у мопеда отказывают тормоза и он падает в фонтан. В это время едущая за ним на машине семья воров принимает Квиллера с сумкой в руках за дилетанта, укравшего сумочку. После падения Квиллера в фонтан семья воров, не найдя у него при себе документов, решает отвезти его к себе домой. Инженеру приходится притворяться, что он бедный вор, чтобы расположить к себе прекрасную воровку. Но однажды она узнаёт его настоящую профессию…



    Исходник: DVD9 R5
    Тип релиза: DVDRip
    Контейнер: AVI

    Видео: 688x384 (16:9), 25 fps, XviD ~ 935 kbps avg, 0.142 bit/pixel
    Аудио: 48 kHz, MP3 2.0, 128 kbps

    Раздача от:
    MediaInfo

    Общее
    Полное имя : Barhatnye.ruchki.1979.DVDRip-745_Youtracker_by_AVP Studio.avi
    Формат : AVI
    Формат/Информация : Audio Video Interleave
    Размер файла : 745 Мбайт
    Продолжительность : 1 ч. 37 м.
    Общий поток : 1073 Кбит/сек
    Программа кодирования : VirtualDubModRus 1.5.10.2 (build 2542/release)
    Библиотека кодирования : VirtualDubMod build 2542/release

    Видео
    Идентификатор : 0
    Формат : MPEG-4 Visual
    Профиль формата : Advanced Simple@L5
    Параметр BVOP формата : 1
    Параметр QPel формата : Нет
    Параметр GMC формата : Без точки перехода
    Параметр матрицы формата : Выборочная
    Идентификатор кодека : XVID
    Идентификатор кодека/Подсказка : XviD
    Продолжительность : 1 ч. 37 м.
    Битрейт : 935 Кбит/сек
    Ширина : 688 пикселей
    Высота : 384 пикселя
    Соотношение сторон : 16:9
    Частота кадров : 25,000 кадров/сек
    Цветовое пространство : YUV
    Субдискретизация насыщенности : 4:2:0
    Битовая глубина : 8 бит
    Тип развёртки : Прогрессивная
    Метод сжатия : С потерями
    Бит/(Пиксели*Кадры) : 0.142
    Размер потока : 649 Мбайт (87%)
    Библиотека кодирования : XviD 73

    Аудио
    Идентификатор : 1
    Формат : MPEG Audio
    Версия формата : Version 1
    Профиль формата : Layer 3
    Идентификатор кодека : 55
    Идентификатор кодека/Подсказка : MP3
    Продолжительность : 1 ч. 37 м.
    Вид битрейта : Постоянный
    Битрейт : 128 Кбит/сек
    Каналы : 2 канала
    Частота : 48,0 КГц
    Метод сжатия : С потерями
    Размер потока : 88,9 Мбайт (12%)
    Выравнивание : Соединение по промежуткам
    Продолжительность промежутка : 40 мс. (1,00 видеокадр)
    Время предзагрузки промежутка : 504 мс.
    Библиотека кодирования : LAME3.99r
    Залил: AVPStudio
    Размер: 744.58 MB (780746752 Bytes)


    Бархатные ручки / Mani di velluto (1979) DVDRip от Youtracker скачать через торрент бесплатно
    загрузка...
    Рейтинг →
     (голосов: 1, оценка 5/5, голосовать можно 1 раз )

    Другие торренты по теме:

  • Бархатные ручки / Mani di velluto (1979) DVDRip-AVC от F-Torrents
  • Бархатные ручки / Mani di velluto (1979) DVDRip-AVC от Youtracker
  • Бархатные ручки / Mani di velluto (1979) BDRip от ExKinoRay | P
  • Бархатные ручки / Mani di velluto (1979) BDRip 720p от Pro100ET | P, L1
  • Бархатные ручки / Mani di velluto (1979) BDRip 1080p | P, P2, L1
  • Бархатные ручки / Mani di velluto (1979) HDRip от Koenig | P, P2
  • Бархатные ручки / Mani di velluto (1979) BDRip 1080p | P, P2, L1
  • Бархатные ручки / Mani di velluto (1979) BDRip 720p от Group | P, P2, L1


    • Комментарии (0):

      Информация

      Информация

        Посетители, находящиеся в группе Гости, не могут оставлять комментарии в данной новости.

        ↓ Меню



        ↓ Опрос

        А Вы добавили сайт в закладки?
        Да
        Не


        Top 10 за месяц (Фильмы)