.
Авторизация | Регистрация
Хочешь лучшие торренты? Добавь свой email!
Добавить
» » Одинокий рейнджер / The Lone Ranger (1956) DVDRip скачать торрент бесплатно




    Одинокий рейнджер / The Lone Ranger (1956) DVDRip скачать торрент бесплатно

    Опубликовал: Админ | Дата: 27-02-2015, 11:09 | Просмотров: 336

    Одинокий рейнджер / The Lone Ranger



    Год выпуска: 1956
    Страна: США, Wrather Productions Inc.
    Жанр: Приключения, вестерн
    Продолжительность: 01:26:18
    Перевод: Профессиональный (многоголосый закадровый)

    Режиссер:Стюарт Хейслер / Stuart Heisler

    В ролях:Клейтон Мур, Джей Сильверхилс, Лайл Беттгер, Бонита Грэнвилл, Перри Лопес, Роберт Дж. Уилки, Джон Пиккард, Беверли Уошберн, Майкл Ансара, Фрэнк ДеКова, Чарльз Мередит, Мики Симпсон, Зон Мюррэй, Лэйн Чандлер, Малкольм Аттербери, Эдвард Колманс, Роберт Филмер, Аль Хэскелл, Фред Келсли, Роберт Малкольм, Кермит Мэйнард, Фило МакКалло, Джек Моуэр, Хэнк Паттерсон, Пол Пауэр, Ли Робертс, Бадди Рузвельт, Уильям Шэллерт, Текс Терри, Элмор Винсент, Роберт Уильямс, Раш Уильямс

    Описание: Белые американцы, обосновавшиеся на Диком Западе США, мирно сосуществуют с индейцами, живущими рядом в горах. Но не всем нравится такое соседство. И вот однажды индейцы стали нападать на мирных фермеров. Но благородный герой в черной маске - Одинокий Рейнджер встает на защиту закона и справедливости, выясняя, что виной надвигающейся войны между белыми и коренным населением этих горных прерий оказываются вовсе не индейцы, а жажда богатства и власти белого человека…



    Качество: DVDRip
    Формат: AVI
    Видео кодек: DivX 5
    Видео: 999 Кбит/сек, 512х384 (4:3), 25,000 кадров/сек
    Аудио: MP3, 2 канала, 128 Кбит/сек, CBR, 48,0 КГц
    MediaInfo 0.7.64
    Общее
    Полное имя : D:moviesLone Ranger, The (1956).avi
    Формат : AVI
    Формат/Информация : Audio Video Interleave
    Размер файла : 700 Мбайт
    Продолжительность : 1 ч. 26 м.
    Общий поток : 1134 Кбит/сек
    Программа кодирования : VirtualDubMod 1.5.4.1 (build 2178/release)
    Библиотека кодирования : VirtualDubMod build 2178/release

    Видео
    Идентификатор : 0
    Формат : MPEG-4 Visual
    Параметр BVOP формата : 1
    Параметр QPel формата : Нет
    Параметр GMC формата : Без точки перехода
    Параметр матрицы формата : Default (H.263)
    Режим смешивания : Сжатый битовый поток
    Идентификатор кодека : DX50
    Идентификатор кодека/Подсказка : DivX 5
    Продолжительность : 1 ч. 26 м.
    Битрейт : 999 Кбит/сек
    Ширина : 512 пикселей
    Высота : 384 пикселя
    Соотношение сторон : 4:3
    Частота кадров : 25,000 кадров/сек
    Цветовое пространство : YUV
    Субдискретизация насыщенности : 4:2:0
    Битовая глубина : 8 бит
    Тип развёртки : Прогрессивная
    Метод сжатия : С потерями
    Бит/(Пиксели*Кадры) : 0.203
    Размер потока : 617 Мбайт (88%)
    Библиотека кодирования : DivX 5.2.1 (WaffleDay) (UTC 2004-09-08)

    Аудио
    Идентификатор : 1
    Формат : MPEG Audio
    Версия формата : Version 1
    Профиль формата : Layer 3
    Режим : Joint stereo
    Расширение режима : MS Stereo
    Идентификатор кодека : 55
    Идентификатор кодека/Подсказка : MP3
    Продолжительность : 1 ч. 26 м.
    Вид битрейта : Постоянный
    Битрейт : 128 Кбит/сек
    Каналы : 2 канала
    Частота : 48,0 КГц
    Метод сжатия : С потерями
    Размер потока : 79,0 Мбайт (11%)
    Выравнивание : Соединение по промежуткам
    Продолжительность промежутка : 80 мс. (2,00 видеокадра)
    Время предзагрузки промежутка : 504 мс.
    Библиотека кодирования : LAME3.96r
    Залил: nbdjod
    Размер: 700.31 MB (734326784 Bytes)


    Одинокий рейнджер / The Lone Ranger (1956) DVDRip торрент скачать бесплатно
    загрузка...
    Рейтинг →
     (голосов: 1, оценка 4/5, голосовать можно 1 раз )

    Другие торренты по теме:

  • Одинокий рейнджер / The Lone Ranger (2013) HD-1080p | D | Трейлер
  • Одинокий рейнджер / The Lone Ranger (2013) BDRip-AVC от HELLYWOOD | Лицензия
  • Одинокий рейнджер / The Lone Ranger (2013) BDRip от HQ-ViDEO | Лицензия
  • Одинокий рейнджер / The Lone Ranger (2013) HDRip от Scarabey | D | Лицензия
  • Одинокий рейнджер / The Lone Ranger (2013) HDRip-AVC от ViRTUS | D
  • Одинокий рейнджер / The Lone Ranger (2013) BDRip-AVC | Лицензия
  • Одинокий рейнджер / The Lone Ranger (2013) BDRip от Youtracker
  • Одинокий рейнджер / The Lone Ranger (2013) BDRip 1080p | D | Лицензия


    • Комментарии (0):

      Информация

      Информация

        Посетители, находящиеся в группе Гости, не могут оставлять комментарии в данной новости.

        ↓ Меню



        ↓ Опрос

        А Вы добавили сайт в закладки?
        Да
        Не


        Top 10 за месяц (Фильмы)