.
Авторизация | Регистрация
Хочешь лучшие торренты? Добавь свой email!
Добавить
» » Одинокий рейнджер и город золота / The Lone Ranger and the Lost City of Gold (1958) DVDRip скачать торрент бесплатно




    Одинокий рейнджер и город золота / The Lone Ranger and the Lost City of Gold (1958) DVDRip скачать торрент бесплатно

    Опубликовал: Админ | Дата: 27-02-2015, 11:09 | Просмотров: 275

    Одинокий рейнджер и город золота / The Lone Ranger and the Lost City of Gold



    Год выпуска: 1958
    Страна: США, Wrather Productions Inc.
    Жанр: Приключения, вестерн
    Продолжительность: 01:21:20
    Перевод: Профессиональный (многоголосый закадровый)

    Режиссер:Лесли Селандер / Lesley Selander

    В ролях:Джей Сильверхилс, Дуглас Кеннеди, Чарльз Уоттс, Норин Нэш, Ральф Муди, Лиза Монтелл, Джон Мильян, Дин Фредерикс, Мауриция Джара, Уильям Генри, Лэйн Брэдфорд, Херман Хэк, Белль Митчелл, Боб Вудворд

    Описание: Краснокожий Тонто однажды спасая жизнь белому ковбою и не подозревал, что тот станет его товарищем и будет защищать индейцев от несправедливости белых американцев.

    И в одной их схваток с группой бандитов, пытаясь спасти живых они узнают, что все убитые ковбоями индейцы владельцы серебряных амулетов, которые если сложить воедино представляют собой карту затерянного города золота. Но вот кто нанял этих убийц, скрывающих свои лица за ковбойскими платками и кто будет их следующей жертвой?

    Одинокий рейнджер на своем серебристом коне Сильвере и его друг индеец Тонто спешат восстановить справедливость и скачут навстречу приключениям.



    Качество: DVDRip
    Формат: AVI
    Видео кодек: DivX 5
    Видео: 1068 Кбит/сек, 512х384 (4:3), 25,000 кадров/сек
    Аудио: MP3, 2 канала, 128 Кбит/сек, CBR, 48,0 КГц
    MediaInfo 0.7.64
    Общее
    Полное имя : D:moviesLone Ranger and the Lost City of Gold, The (1958).avi
    Формат : AVI
    Формат/Информация : Audio Video Interleave
    Размер файла : 700 Мбайт
    Продолжительность : 1 ч. 21 м.
    Общий поток : 1204 Кбит/сек
    Программа кодирования : VirtualDubMod 1.5.4.1 (build 2178/release)
    Библиотека кодирования : VirtualDubMod build 2178/release

    Видео
    Идентификатор : 0
    Формат : MPEG-4 Visual
    Параметр BVOP формата : 1
    Параметр QPel формата : Нет
    Параметр GMC формата : Без точки перехода
    Параметр матрицы формата : Default (H.263)
    Режим смешивания : Сжатый битовый поток
    Идентификатор кодека : DX50
    Идентификатор кодека/Подсказка : DivX 5
    Продолжительность : 1 ч. 21 м.
    Битрейт : 1068 Кбит/сек
    Ширина : 512 пикселей
    Высота : 384 пикселя
    Соотношение сторон : 4:3
    Частота кадров : 25,000 кадров/сек
    Цветовое пространство : YUV
    Субдискретизация насыщенности : 4:2:0
    Битовая глубина : 8 бит
    Тип развёртки : Прогрессивная
    Метод сжатия : С потерями
    Бит/(Пиксели*Кадры) : 0.217
    Размер потока : 622 Мбайт (89%)
    Библиотека кодирования : DivX 5.2.1 (WaffleDay) (UTC 2004-09-08)

    Аудио
    Идентификатор : 1
    Формат : MPEG Audio
    Версия формата : Version 1
    Профиль формата : Layer 3
    Режим : Joint stereo
    Расширение режима : MS Stereo
    Идентификатор кодека : 55
    Идентификатор кодека/Подсказка : MP3
    Продолжительность : 1 ч. 21 м.
    Вид битрейта : Постоянный
    Битрейт : 128 Кбит/сек
    Каналы : 2 канала
    Частота : 48,0 КГц
    Метод сжатия : С потерями
    Размер потока : 74,5 Мбайт (11%)
    Выравнивание : Соединение по промежуткам
    Продолжительность промежутка : 80 мс. (2,00 видеокадра)
    Время предзагрузки промежутка : 504 мс.
    Библиотека кодирования : LAME3.96r
    Залил: nbdjod
    Размер: 700.38 MB (734398464 Bytes)


    Одинокий рейнджер и город золота / The Lone Ranger and the Lost City of Gold (1958) DVDRip торрент скачать бесплатно
    загрузка...
    Рейтинг →
     (голосов: 1, оценка 3/5, голосовать можно 1 раз )

    Другие торренты по теме:

  • Одинокий рейнджер / The Lone Ranger (2013) HD-1080p | D | Трейлер
  • Одинокий рейнджер / The Lone Ranger (2013) BDRip-AVC от HELLYWOOD | Лицензия
  • Одинокий рейнджер / The Lone Ranger (2013) BDRip от HQ-ViDEO | Лицензия
  • Одинокий рейнджер / The Lone Ranger (2013) HDRip от Scarabey | D | Лицензия
  • Одинокий рейнджер / The Lone Ranger (2013) HDRip-AVC от ViRTUS | D
  • Одинокий рейнджер / The Lone Ranger (2013) BDRip-AVC | Лицензия
  • Одинокий рейнджер / The Lone Ranger (2013) BDRip от Youtracker
  • Одинокий рейнджер / The Lone Ranger (2013) BDRip 1080p | D | Лицензия


    • Комментарии (0):

      Информация

      Информация

        Посетители, находящиеся в группе Гости, не могут оставлять комментарии в данной новости.

        ↓ Меню



        ↓ Опрос

        А Вы добавили сайт в закладки?
        Да
        Не


        Top 10 за месяц (Фильмы)