.
Авторизация | Регистрация
Хочешь лучшие торренты? Добавь свой email!
Добавить
» » Метеор / Meteor (1979) DVDRip от Youtracker скачать торрент бесплатно




    Метеор / Meteor (1979) DVDRip от Youtracker скачать торрент бесплатно

    Опубликовал: Админ | Дата: 27-02-2015, 11:09 | Просмотров: 437


    Страна: США
    Производство: American International Pictures (AIP), Meteor Joint Venture, Palladium Productions

    Жанр: фантастика, боевик, триллер, драма
    Год выпуска: 1977
    Продолжительность: 01:47:13

    Перевод: Профессиональный (Многоголосый, закадровый)
    Оригинальная аудиодорожка: нет
    Cубтитры: нет

    Режиссер: Роналд Ним / Ronald Neame

    В ролях:
    Шон Коннери, Натали Вуд, Карл Молден, Брайан Кит, Мартин Ландау, Тревор Ховард, Ричард А. Дайсарт, Генри Фонда, Джозеф Кампанелла, Бо Брундин...

    Описание:
    Космический корабль астронавтов, наблюдавших столкновение между кометой и астероидом по имени Орфей, уничтожен обломком. Траектория обломков пересекается с земной.
    А на Земле разгорается острый политический кризис. Выясняется, что и у США и у Советского Союза существуют запрещенные договорами орбитальные боевые платформы, несущие на себе ядерные боеголовки. Однако оба правительства отказываются признаться в существовании этого орбитального оружия.
    Тем временем один из обломков падает и уничтожает Нью-Йорк. Две сверхдержавы наконец соглашаются объединить их оружие, чтобы отклонить Орфей от столкновения…




    Исходник: HDTV 720p
    Тип релиза: HDTVRip
    Контейнер: AVI

    Видео: 720x304 (2.35:1), 23.976 fps, XviD ~ 836 kbps avg, 0.159 bit/pixel
    Аудио: 48 kHz, MP3 5.1, 128 kbps

    Раздача от:
    MediaInfo

    Общее
    Полное имя : Meteor.1979.HDTVRip_Youtracker_by_AVP Studio.avi
    Формат : AVI
    Формат/Информация : Audio Video Interleave
    Размер файла : 746 Мбайт
    Продолжительность : 1 ч. 47 м.
    Общий поток : 973 Кбит/сек
    Программа кодирования : VirtualDubModRus 1.5.10.2 (build 2542/release)
    Библиотека кодирования : VirtualDubMod build 2542/release

    Видео
    Идентификатор : 0
    Формат : MPEG-4 Visual
    Профиль формата : Advanced Simple@L5
    Параметр BVOP формата : 1
    Параметр QPel формата : Нет
    Параметр GMC формата : Без точки перехода
    Параметр матрицы формата : Выборочная
    Идентификатор кодека : XVID
    Идентификатор кодека/Подсказка : XviD
    Продолжительность : 1 ч. 47 м.
    Битрейт : 836 Кбит/сек
    Ширина : 720 пикселей
    Высота : 304 пикселя
    Соотношение сторон : 2,35:1
    Частота кадров : 23,976 кадра/сек
    Цветовое пространство : YUV
    Субдискретизация насыщенности : 4:2:0
    Битовая глубина : 8 бит
    Тип развёртки : Прогрессивная
    Метод сжатия : С потерями
    Бит/(Пиксели*Кадры) : 0.159
    Размер потока : 641 Мбайт (86%)
    Библиотека кодирования : XviD 73

    Аудио
    Идентификатор : 1
    Формат : MPEG Audio
    Версия формата : Version 1
    Профиль формата : Layer 3
    Идентификатор кодека : 55
    Идентификатор кодека/Подсказка : MP3
    Продолжительность : 1 ч. 47 м.
    Вид битрейта : Постоянный
    Битрейт : 128 Кбит/сек
    Каналы : 2 канала
    Частота : 48,0 КГц
    Метод сжатия : С потерями
    Размер потока : 98,2 Мбайт (13%)
    Выравнивание : Соединение по промежуткам
    Продолжительность промежутка : 42 мс. (1,00 видеокадр)
    Время предзагрузки промежутка : 504 мс.
    Библиотека кодирования : LAME3.99r
    Залил: AVPStudio
    Размер: 746.27 MB (782518272 Bytes)


    Метеор / Meteor (1979) DVDRip от Youtracker торрент скачать бесплатно
    загрузка...
    Рейтинг →
     (голосов: 1, оценка 3/5, голосовать можно 1 раз )

    Другие торренты по теме:

  • Метеор и крутые тачки / Bigfoot Presents: Meteor and the Mighty Monster Trucks (2006) DVDRip от Youtracker | D, P
  • Человек-метеор / The Meteor Man (1993) HDTVRip 720p от ClubTorrent | P
  • Метеор на ринге (1970) DVDRip от MediaClub | КПК скачать через торрент бесплатно
  • Метеор-убийца / Killer Meteors / Feng yu shuang liu xing (1976) BDRip oт RG Orient Extreme | P2, P2 скачать через торрент бесплатно
  • Метеор-убийца / Feng yu shuang liu xing (1976) BDRip от HQCLUB скачать через торрент бесплатно
  • Метеор. Огненный шар из космоса / Meteor Strike: Fireball from Space (2013) IPTVRip от Pshichko66
  • Метеор и крутые тачки / Bigfoot Presents: Meteor and the Mighty Monster Trucks (2006) DVDRip-AVC от New-Team | D, P
  • Метеор и крутые тачки / Bigfoot Presents: Meteor and the Mighty Monster Trucks (2006) DVDRip от New-Team | D, P


    • Комментарии (0):

      Информация

      Информация

        Посетители, находящиеся в группе Гости, не могут оставлять комментарии в данной новости.

        ↓ Меню



        ↓ Опрос

        А Вы добавили сайт в закладки?
        Да
        Не


        Top 10 за месяц (Фильмы)