.
Авторизация | Регистрация
Хочешь лучшие торренты? Добавь свой email!
Добавить
» » Аббатство Даунтон / Downton Abbey (2013) WEB-DLRip | BaibaKo скачать через торрент бесплатно




    Аббатство Даунтон / Downton Abbey (2013) WEB-DLRip | BaibaKo скачать через торрент бесплатно

    Опубликовал: Админ | Дата: 27-02-2015, 11:09 | Просмотров: 359





    Страна: Великобритания
    Год выпуска: 2013
    Жанр: драма, исторический

    Перевод: Многоголосый закадровый, профессиональный - BaibaKo

    Автор перевода: vipere
    Озвучка: Ольга Мотрич, Елена Григорьева, Владимир Курдов, Алексей Кузнецов
    Монтаж: Павел Дежин


    Сценарий и идея: Джулиан Феллоуз
    Режиссер: Дэвид Эванс
    Актеры: Хью Бонневиль, Лаура Кармайкл, Джим Картер, Брендан Койл, Мишель Докери, Кэвин Дойл, Джоан Фроггатт, Лили Джеймс, Роб Джеймс-Кольер, Ален Лич, Филис Логан, Элизабет МакГаверн, Софи МакШера, Мэтт Милн, Лесли Николь, Мэгги Смит, Эд Спиллерс, Кара Теобольд и Пенелопа Уилтон и др.

    Описание фильма:
    1922 год. Продолжение рассказа о жизни семьи Кроули и их придворных слуг. Снова время перемен, позади - бесконечные войны и смутные дни, а впереди новое будущее, надежда на полное восстановление династии.

    Продолжительность: ~01:09:00 серия
    Качество видео: WEB-DLRip

    Видеокодек: XviD
    Формат: AVI
    Битрейт видео: ~1550 kb/s
    Размер кадра: 720х400 (16:9)
    Аудио Rus: (MPEG Layer 3, 48,0 kHz, 2 ch, 192 kb/s) - многоголосый закадровый
    Аудио Eng: (MPEG Layer 3, 48,0 kHz, 2 ch, 192 kb/s) - оригинал

    MediaInfo
    Общее
    Полное имя : D:Аббатство Даунтон (сезон 4) Downton Abbey (2013) WEB-DLRip - BaibaKoDownton.Abbey.s04e01.WEB-DLRip.XviD.Rus.Eng.BaibaKo.tv.avi
    Формат : AVI
    Формат/Информация : Audio Video Interleave
    Размер файла : 965 Мбайт
    Продолжительность : 1 ч. 9 м.
    Общий поток : 1948 Кбит/сек
    Программа кодирования : VirtualDubMod 1.5.10.2 (build 2542/release)
    Библиотека кодирования : VirtualDubMod build 2542/release

    Видео
    Идентификатор : 0
    Формат : MPEG-4 Visual
    Профиль формата : Advanced Simple@L5
    Параметр BVOP формата : 2
    Параметр QPel формата : Нет
    Параметр GMC формата : Без точки перехода
    Параметр матрицы формата : Default (H.263)
    Идентификатор кодека : XVID
    Идентификатор кодека/Подсказка : XviD
    Продолжительность : 1 ч. 9 м.
    Битрейт : 1550 Кбит/сек
    Ширина : 720 пикселей
    Высота : 400 пикселей
    Соотношение сторон : 16:9
    Частота кадров : 23,976 кадра/сек
    Цветовое пространство : YUV
    Субдискретизация насыщенности : 4:2:0
    Битовая глубина : 8 бит
    Тип развёртки : Прогрессивная
    Метод сжатия : С потерями
    Бит/(Пиксели*Кадры) : 0.224
    Размер потока : 768 Мбайт (80%)
    Библиотека кодирования : XviD 1.2.1 (UTC 2008-12-04)

    Аудио #1
    Идентификатор : 1
    Формат : MPEG Audio
    Версия формата : Version 1
    Профиль формата : Layer 3
    Режим : Joint stereo
    Расширение режима : MS Stereo
    Идентификатор кодека : 55
    Идентификатор кодека/Подсказка : MP3
    Продолжительность : 1 ч. 9 м.
    Вид битрейта : Постоянный
    Битрейт : 192 Кбит/сек
    Каналы : 2 канала
    Частота : 48,0 КГц
    Метод сжатия : С потерями
    Размер потока : 95,2 Мбайт (10%)
    Выравнивание : Соединение по промежуткам
    Продолжительность промежутка : 42 мс. (1,00 видеокадр)
    Время предзагрузки промежутка : 504 мс.
    Библиотека кодирования : LAME3.99r
    Залил: dimkatwit
    Размер: 1.63 GB (1745954816 Bytes)


    Аббатство Даунтон / Downton Abbey (2013) WEB-DLRip | BaibaKo скачать через торрент бесплатно
    загрузка...
    Рейтинг →
     (голосов: 1, оценка 4/5, голосовать можно 1 раз )

    Другие торренты по теме:

  • Аббатство Даунтон / Downton Abbey (2012) WEB-DLRip | BaibaKo
  • OST - Аббатство Даунтон / Downton Abbey (2012) MP3
  • Аббатство Даунтон / Downton Abbey WEB-DL | BaibaKo
  • Аббатство Даунтон / Downton Abbey (2013) WEB-DL 720p | BaibaKo скачать через торрент бесплатно
  • Аббатство Даунтон / Downton Abbey (2013) HDRip | BaibaKo скачать через торрент бесплатно
  • Аббатство Даунтон / Downton Abbey (2014) WEB-DLRip | BaibaKo
  • Аббатство Даунтон, 5 сезон 1 серия из 8 / Downton Abbey скачать через торрент бесплатно
  • Аббатство Даунтон / Downton Abbey скачать через торрент бесплатно


    • Комментарии (0):

      Информация

      Информация

        Посетители, находящиеся в группе Гости, не могут оставлять комментарии в данной новости.

        ↓ Меню



        ↓ Опрос

        А Вы добавили сайт в закладки?
        Да
        Не


        Top 10 за месяц (Фильмы)