.
Авторизация | Регистрация
Хочешь лучшие торренты? Добавь свой email!
Добавить
» » Черный список / The Blacklist (2013) WEB-DLRip | NewStudio скачать через торрент бесплатно




    Черный список / The Blacklist (2013) WEB-DLRip | NewStudio скачать через торрент бесплатно

    Опубликовал: Админ | Дата: 27-02-2015, 11:09 | Просмотров: 762



    Год выпуска: 2013
    Страна: США
    Жанр: драма, криминал

    Перевод: Многоголосый закадровый, профессиональный - NewStudio


    Дата мировой премьеры:23 сентября 2013

    Режиссер: Джо Карнахан
    Актеры: Джеймс Спэйдер, Меган Бун, Диего Клаттенхофф, Гарри Дж. Ленникс, Райан Игголд, Ильфенеш Хадера, Джессика Ши Элверсон, Чарльз Бэйкер, Дельфина Белль, Ник Блеймаер и др.

    Описание фильма:
    На протяжении десятилетий бывший правительственный агент Рэймонд Реддингтон был одним из самых разыскиваемых беглецов ФБР. Неожиданно он решает сдаться…

    Продолжительность: ~00:45:00 серия
    Качество видео: WEB-DLRip

    Видеокодек: Xvid
    Формат: AVI
    Битрейт видео: ~1431 kb/s
    Размер кадра: 720х400 (16:9)
    Аудио Rus: (MPEG Layer 3, 48,0 kHz, 2 ch, 128 kb/s) - многоголосый закадровый
    Аудио Eng: (MPEG Layer 3, 48,0 kHz, 2 ch, 128 kb/s) - оригинал

    MediaInfo
    Общее
    Полное имя : D:Черный список (Сезон 1) The Blacklist (2013) WEB-DLRip - NewStudioThe.Blacklist.s01e01.WEBDLRip.NewStudio.TV.avi
    Формат : AVI
    Формат/Информация : Audio Video Interleave
    Размер файла : 549 Мбайт
    Продолжительность : 45 м.
    Общий поток : 1701 Кбит/сек
    Программа кодирования : VirtualDubMod 1.5.10.2 (build 2540/release)
    Библиотека кодирования : VirtualDubMod build 2540/release

    Видео
    Идентификатор : 0
    Формат : MPEG-4 Visual
    Профиль формата : Advanced Simple@L5
    Параметр BVOP формата : 2
    Параметр QPel формата : Нет
    Параметр GMC формата : Без точки перехода
    Параметр матрицы формата : Default (MPEG)
    Идентификатор кодека : XVID
    Идентификатор кодека/Подсказка : XviD
    Продолжительность : 45 м.
    Битрейт : 1431 Кбит/сек
    Ширина : 720 пикселей
    Высота : 400 пикселей
    Соотношение сторон : 16:9
    Частота кадров : 23,976 кадра/сек
    Цветовое пространство : YUV
    Субдискретизация насыщенности : 4:2:0
    Битовая глубина : 8 бит
    Тип развёртки : Прогрессивная
    Метод сжатия : С потерями
    Бит/(Пиксели*Кадры) : 0.207
    Размер потока : 462 Мбайт (84%)
    Библиотека кодирования : XviD 64

    Аудио #1
    Идентификатор : 1
    Формат : MPEG Audio
    Версия формата : Version 1
    Профиль формата : Layer 3
    Режим : Joint stereo
    Расширение режима : MS Stereo
    Идентификатор кодека : 55
    Идентификатор кодека/Подсказка : MP3
    Продолжительность : 45 м.
    Вид битрейта : Постоянный
    Битрейт : 128 Кбит/сек
    Каналы : 2 канала
    Частота : 48,0 КГц
    Метод сжатия : С потерями
    Размер потока : 41,3 Мбайт (8%)
    Выравнивание : Соединение по промежуткам
    Продолжительность промежутка : 42 мс. (1,00 видеокадр)
    Время предзагрузки промежутка : 504 мс.

    Аудио #2
    Идентификатор : 2
    Формат : MPEG Audio
    Версия формата : Version 1
    Профиль формата : Layer 3
    Режим : Joint stereo
    Расширение режима : MS Stereo
    Идентификатор кодека : 55
    Идентификатор кодека/Подсказка : MP3
    Продолжительность : 45 м.
    Вид битрейта : Постоянный
    Битрейт : 128 Кбит/сек
    Каналы : 2 канала
    Частота : 48,0 КГц
    Метод сжатия : С потерями
    Размер потока : 41,3 Мбайт (8%)
    Выравнивание : Соединение по промежуткам
    Продолжительность промежутка : 42 мс. (1,00 видеокадр)
    Время предзагрузки промежутка : 504 мс.


    З.ы: Помните, благодарность за релиз всегда радует релизера и даёт стимул для следующих релизов ^_^

    Время раздачи: 24/7 (круглосуточно) до появления первых скачавших !

    Скриншоты



    Залил: dimkatwit
    Размер: 1.07 GB (1152049152 Bytes)

    Черный список / The Blacklist (2013) WEB-DLRip | NewStudio скачать через торрент бесплатно
    загрузка...
    Рейтинг →
     (голосов: 1, оценка 4/5, голосовать можно 1 раз )

    Другие торренты по теме:

  • Черный список / The Blacklist (2013) WEB-DLRip | To4ka
  • Черный список / The Blacklist (2013) WEB-DLRip 720p скачать через торрент бесплатно
  • Черный список / The Blacklist (2013) WEB-DL 720p | NewStudio скачать через торрент бесплатно
  • Черный список / The Blacklist (2013) WEBDLRip | SET скачать через торрент бесплатно
  • Черный список / The Blacklist (2013) WEB-DLRip 720p | To4ka
  • Черный список / The Blacklist (2013) WEB-DLRip | SET | iPhone
  • Черный Список / The Blacklist (2013-2014) WEB-DLRip | To4ka скачать через торрент бесплатно
  • Черный список / The Blacklist (2013-2014) WEB-DLRip 720p | To4ka


    • Комментарии (0):

      Информация

      Информация

        Посетители, находящиеся в группе Гости, не могут оставлять комментарии в данной новости.

        ↓ Меню



        ↓ Опрос

        А Вы добавили сайт в закладки?
        Да
        Не


        Top 10 за месяц (Фильмы)