.
Авторизация | Регистрация
Хочешь лучшие торренты? Добавь свой email!
Добавить
» » Черный список / The Blacklist (2013) WEB-DL 720p | NewStudio скачать через торрент бесплатно




    Черный список / The Blacklist (2013) WEB-DL 720p | NewStudio скачать через торрент бесплатно

    Опубликовал: Админ | Дата: 27-02-2015, 11:09 | Просмотров: 1175



    Год выпуска: 2013
    Страна: США
    Жанр: драма, криминал

    Перевод: Многоголосый закадровый, профессиональный - NewStudio


    Дата мировой премьеры:23 сентября 2013

    Режиссер: Джо Карнахан
    Актеры: Джеймс Спэйдер, Меган Бун, Диего Клаттенхофф, Гарри Дж. Ленникс, Райан Игголд, Ильфенеш Хадера, Джессика Ши Элверсон, Чарльз Бэйкер, Дельфина Белль, Ник Блеймаер и др.

    Описание фильма:
    На протяжении десятилетий бывший правительственный агент Рэймонд Реддингтон был одним из самых разыскиваемых беглецов ФБР. Неожиданно он решает сдаться…

    Продолжительность: ~00:45:00 серия
    Качество видео: WEB-DL 720p

    Формат: MKV
    Битрейт видео: ~3877 kb/s
    Размер кадра: 1280x720 (16:9)
    Аудио Rus: (MPEG Layer 3, 48,0 kHz, 2 ch, 128 kb/s) - многоголосый закадровый
    Аудио Eng: (MPEG Layer 3, 48,0 kHz, 2 ch, 128 kb/s) - оригинал

    MediaInfo
    Общее
    Уникальный идентификатор : 218734797178812806263984103475328792399 (0xA48ECA21B168A595BE39651AB4AF374F)
    Полное имя : D:ТоррентЧерный список 720pThe.Blacklist.s01e01.WEBDL.720p.NewStudio.TV.mkv
    Формат : Matroska
    Версия формата : Version 2
    Размер файла : 1,43 Гбайт
    Продолжительность : 45 м.
    Общий поток : 4540 Кбит/сек
    Дата кодирования : UTC 2013-10-12 17:03:47
    Программа кодирования : mkvmerge v2.9.9 (;Tutu;) built on Nov 25 2009 21:13:32
    Библиотека кодирования : libebml v0.7.9 libmatroska v0.8.1

    Видео
    Идентификатор : 1
    Формат : AVC
    Формат/Информация : Advanced Video Codec
    Профиль формата : High@L3.1
    Параметр CABAC формата : Нет
    Параметр ReFrames формата : 2 кадра
    Идентификатор кодека : V_MPEG4/ISO/AVC
    Продолжительность : 45 м.
    Битрейт : 3874 Кбит/сек
    Ширина : 1280 пикселей
    Высота : 718 пикселей
    Соотношение сторон : 16:9
    Режим частоты кадров : Постоянный
    Частота кадров : 23,976 кадра/сек
    Цветовое пространство : YUV
    Субдискретизация насыщенности : 4:2:0
    Битовая глубина : 8 бит
    Тип развёртки : Прогрессивная
    Бит/(Пиксели*Кадры) : 0.176
    Размер потока : 1,22 Гбайт (85%)
    Язык : English
    Default : Нет
    Forced : Нет
    Основные цвета : BT.709
    Характеристики трансфера : BT.709
    Коэффициенты матрицы : BT.709

    Аудио #1
    Идентификатор : 2
    Формат : AC-3
    Формат/Информация : Audio Coding 3
    Расширение режима : CM (complete main)
    Параметр Endianness формата : Big
    Идентификатор кодека : A_AC3
    Продолжительность : 45 м.
    Вид битрейта : Постоянный
    Битрейт : 192 Кбит/сек
    Каналы : 2 канала
    Расположение каналов : Front: L R
    Частота : 48,0 КГц
    Битовая глубина : 16 бит
    Метод сжатия : С потерями
    Размер потока : 62,0 Мбайт (4%)
    Язык : Russian
    Default : Да
    Forced : Да

    Аудио #2
    Идентификатор : 3
    Формат : AC-3
    Формат/Информация : Audio Coding 3
    Расширение режима : CM (complete main)
    Параметр Endianness формата : Big
    Идентификатор кодека : A_AC3
    Продолжительность : 45 м.
    Вид битрейта : Постоянный
    Битрейт : 384 Кбит/сек
    Каналы : 6 каналов
    Расположение каналов : Front: L C R, Side: L R, LFE
    Частота : 48,0 КГц
    Битовая глубина : 16 бит
    Метод сжатия : С потерями
    Размер потока : 124 Мбайт (8%)
    Язык : English
    Default : Нет
    Forced : Нет



    З.ы: Помните, благодарность за релиз всегда радует релизера и даёт стимул для следующих релизов ^_^

    Время раздачи: 24/7 (круглосуточно) до появления первых скачавших !

    Скриншоты



    Залил: dimkatwit
    Размер: 2.78 GB (2985321543 Bytes)

    Черный список / The Blacklist (2013) WEB-DL 720p | NewStudio скачать через торрент бесплатно
    загрузка...
    Рейтинг →
     (голосов: 1, оценка 3/5, голосовать можно 1 раз )

    Другие торренты по теме:

  • Черный список / The Blacklist (2013) WEB-DLRip | To4ka
  • Черный список / The Blacklist (2013) WEB-DLRip 720p скачать через торрент бесплатно
  • Черный список / The Blacklist (2013) WEB-DLRip | NewStudio скачать через торрент бесплатно
  • Черный список / The Blacklist (2013) WEBDLRip | SET скачать через торрент бесплатно
  • Черный список / The Blacklist (2013) WEB-DLRip 720p | To4ka
  • Черный список / The Blacklist (2013) WEB-DLRip | SET | iPhone
  • Черный Список / The Blacklist (2013-2014) WEB-DLRip | To4ka скачать через торрент бесплатно
  • Черный список / The Blacklist (2013-2014) WEB-DLRip 720p | To4ka


    • Комментарии (0):

      Информация

      Информация

        Посетители, находящиеся в группе Гости, не могут оставлять комментарии в данной новости.

        ↓ Меню



        ↓ Опрос

        А Вы добавили сайт в закладки?
        Да
        Не


        Top 10 за месяц (Фильмы)