.
Авторизация | Регистрация
Хочешь лучшие торренты? Добавь свой email!
Добавить
» » Посылка / The Package (2012) BDRip 720p | P скачать через торрент бесплатно




    Посылка / The Package (2012) BDRip 720p | P скачать через торрент бесплатно

    Опубликовал: Админ | Дата: 27-02-2015, 11:09 | Просмотров: 261



    Информация о фильме
    Название: Посылка
    Оригинальное название: The Package
    Год выхода: 2013
    Жанр: боевик
    Режиссер: Джесси Джонсон
    В ролях: Стив Остин, Дольф Лундгрен, Даррен Шахлави, Моник Гэндертон, Джерри Тримбл, Майкл Дэйнджерфилд, Тересе Шафи, Майк Допуд, Эрик Кинлисайд, Кристен Керр

    О фильме: Курьер по кличке Немец должен доставить таинственную посылку местному криминальному авторитету. Задача усложняется по мере того, как о посылке узнают гангстеры. С этого момента начинается смертельная игра, победителем которой суждено стать лишь одному…



    Выпущено: США / Caliber Media Company, Lighthouse Pictures, Pitchblack Pictures Inc.
    Продолжительность: 01:35:24
    Озвучивание: Профессиональное (многоголосое) SDI Media по заказу Universal Russia

    Файл
    Формат: MKV
    Качество: BDRip 720p
    Видео: 5907 kb/s, 1280x720
    Аудио: Russian: SDI Media: AC3, 320 kb/s (2 ch) / English: AC3, 640 kb/s (6 ch)
    Субтитры: English
    Дополнительно: Сохранены оригинальные чаптеры как на Blu-Ray





    MI

    Format : Matroska
    Format version : Version 4 / Version 2
    File size : 4.57 GiB
    Duration : 1h 35mn
    Overall bit rate : 6 859 Kbps
    Encoded date : UTC 2013-10-12 05:22:38
    Writing application : mkvmerge v6.1.0 (;Old Devil;) built on Mar 4 2013 09:10:42
    Writing library : libebml v1.3.0 libmatroska v1.4.0

    Video
    ID : 1
    Format : AVC
    Format/Info : Advanced Video Codec
    Format profile : High@L4.1
    Format settings, CABAC : Yes
    Format settings, ReFrames : 9 frames
    Codec ID : V_MPEG4/ISO/AVC
    Duration : 1h 35mn
    Bit rate : 5 907 Kbps
    Width : 1 280 pixels
    Height : 720 pixels
    Display aspect ratio : 16:9
    Frame rate : 23.976 fps
    Color space : YUV
    Chroma subsampling : 4:2:0
    Bit depth : 8 bits
    Scan type : Progressive
    Bits/(Pixel*Frame) : 0.267
    Stream size : 3.84 GiB (84%)
    Writing library : x264 core 129 r2245 729M 1a52e03
    Encoding settings : cabac=1 / ref=9 / deblock=1:1:1 / analyse=0x3:0x113 / me=umh / subme=10 / psy=1 / fade_compensate=0.00 / psy_rd=1.05:0.10 / mixed_ref=1 / me_range=32 / chroma_me=1 / trellis=2 / 8x8dct=1 / cqm=0 / deadzone=21,11 / fast_pskip=0 / chroma_qp_offset=-2 / threads=12 / lookahead_threads=1 / sliced_threads=0 / nr=0 / decimate=1 / interlaced=0 / bluray_compat=0 / constrained_intra=0 / fgo=0 / bframes=6 / b_pyramid=2 / b_adapt=2 / b_bias=0 / direct=3 / weightb=1 / open_gop=0 / weightp=2 / keyint=250 / keyint_min=23 / scenecut=40 / intra_refresh=0 / rc=2pass / mbtree=0 / bitrate=5907 / ratetol=1.0 / qcomp=0.70 / qpmin=0 / qpmax=69 / qpstep=4 / cplxblur=20.0 / qblur=0.5 / ip_ratio=1.40 / pb_ratio=1.30 / aq=2:1.00
    Language : English
    Default : Yes
    Forced : No

    Audio #1
    ID : 2
    Format : AC-3
    Format/Info : Audio Coding 3
    Mode extension : CM (complete main)
    Format settings, Endianness : Big
    Codec ID : A_AC3
    Duration : 1h 35mn
    Bit rate mode : Constant
    Bit rate : 320 Kbps
    Channel(s) : 2 channels
    Channel positions : Front: L R
    Sampling rate : 48.0 KHz
    Bit depth : 16 bits
    Compression mode : Lossy
    Stream size : 218 MiB (5%)
    Title : SDI Media
    Language : Russian
    Default : Yes
    Forced : No

    Audio #2
    ID : 3
    Format : AC-3
    Format/Info : Audio Coding 3
    Mode extension : CM (complete main)
    Format settings, Endianness : Big
    Codec ID : A_AC3
    Duration : 1h 35mn
    Bit rate mode : Constant
    Bit rate : 640 Kbps
    Channel(s) : 6 channels
    Channel positions : Front: L C R, Side: L R, LFE
    Sampling rate : 48.0 KHz
    Bit depth : 16 bits
    Compression mode : Lossy
    Stream size : 437 MiB (9%)
    Language : English
    Default : No
    Forced : No

    Text
    ID : 4
    Format : UTF-8
    Codec ID : S_TEXT/UTF8
    Codec ID/Info : UTF-8 Plain Text
    Language : English
    Default : No
    Forced : No

    Menu
    00:00:00.000 : en:00:00:00.000
    00:08:08.321 : en:00:08:08.321
    00:21:54.813 : en:00:21:54.813
    00:27:08.210 : en:00:27:08.210
    00:34:05.794 : en:00:34:05.794
    00:41:18.685 : en:00:41:18.685
    00:49:21.834 : en:00:49:21.834
    00:55:43.590 : en:00:55:43.590
    01:01:51.374 : en:01:01:51.374
    01:13:16.726 : en:01:13:16.726
    01:20:55.559 : en:01:20:55.559
    01:31:21.184 : en:01:31:21.184
    Скриншоты

    Размер: 4.57 GB (4908484439 Bytes)

    Посылка / The Package (2012) BDRip 720p | P скачать через торрент бесплатно
    загрузка...
    Рейтинг →
     (голосов: 1, оценка 5/5, голосовать можно 1 раз )

    Другие торренты по теме:

  • Посылка / The Package (2012) BDRip | L2
  • Посылка / The Box (2009) BDRip 720p от leonardo 59 Scarabey | Лицензия
  • Посылка / The Box (2009) BDRip 1080p от leonardo 59 Scarabey | Лицензия
  • Посылка / The Box (2009) BDRip-AVC от leonardo 59 Scarabey | Лицензия
  • Посылка / The Package (2013) HDRip | P скачать через торрент бесплатно
  • Посылка / The Package (2013) HDRip от Один 777 | P
  • Посылка / The Box (2009) WEB-DL 1080p | D | Open Matte


    • Комментарии (0):

      Информация

      Информация

        Посетители, находящиеся в группе Гости, не могут оставлять комментарии в данной новости.

        ↓ Меню



        ↓ Опрос

        А Вы добавили сайт в закладки?
        Да
        Не


        Top 10 за месяц (Фильмы)