.
Авторизация | Регистрация
Хочешь лучшие торренты? Добавь свой email!
Добавить
» » Эта - дурацкая - любовь / Crazy, Stupid, Love (2011) BDRip от Youtracker | P скачать торрент бесплатно




    Эта - дурацкая - любовь / Crazy, Stupid, Love (2011) BDRip от Youtracker | P скачать торрент бесплатно

    Опубликовал: Админ | Дата: 27-02-2015, 11:09 | Просмотров: 349


    Год выпуска: 2011
    Страна: США
    Студии: Carousel Productions (II)

    Жанр: комедия, драма, мелодрама
    Продолжительность: 1:58:06

    Перевод: Профессиональный (дублированный)
    Субтитры: нет
    Оригинальная аудиодорожка: нет

    Режиссер: Гленн Фикарра / Glenn Ficarra, Джон Рекуа / John Requa

    В ролях: Стив Карелл, Райан Гослинг, Джулианна Мур, Эмма Стоун, Аналей Типтон, Йон Бобо, Джои Кинг, Мариса Томей, Бет Литлфорд, Джон Кэрролл Линч, Кевин Бейкон...

    Описание: У Кола Уивера, пуританских взглядов семьянина в возрасте чуть-чуть за сорок, не жизнь, а мечта — хорошая работа, прекрасный дом, замечательные дети и брак со школьной возлюбленной. Но когда Кол узнает, что его жена Эмили изменила ему и хочет развода, его идеальная жизнь быстро рушится. Хуже того, говоря современным языком, Кол, который уже пару десятилетий не ходил на свидания, являет собой настоящего лоха. И вот, проводя все свое свободное время в баре в дурном расположении духа, несчастный Кол становится протеже обаятельного (чуть-чуть за тридцать) игрока Джейкоба Палмера. Пытаясь помочь Колу забыть жену и начать собственную жизнь, Джейкоб открывает ему глаза на многочисленные возможности, открывающиеся перед ним: кокетливые женщины, крепкие напитки и чувство стиля, которое нельзя найти в дешевой парикмахерской или магазине распродаж. Кол и Эмили — не единственные, кто ищут любовь, причем, возможно, совершенно не там, где нужно: тринадцатилетний Робби, сын Кола, сходит с ума по своей семнадцатилетней няне Джессике, а та скрывает свою влюбленность в его отца. И несмотря на новый облик и новые завоевания на любовном фронте, единственное, что Кол не может переупрямить, — это собственное сердце, которое ведет его туда, с чего все когда-то начиналось...



    Исходник: Blu-ray 1080p
    Тип релиза: BDRip
    Контейнер: AVI

    Видео: 688x288 (2.40:1), 23,976 fps, XviD MPEG-4 Visual ~ 747 kbps avg, 0.157 bit/pixel
    Аудио: 48 kHz, MP3, 2 ch, ~ 128.00 kbps avg
    MediaInfo

    Общее
    Полное имя : Jeta.durackaja.ljubov;.2011Jeta.durackaja.ljubov;.2011.BDRip.avi
    Формат : AVI
    Формат/Информация : Audio Video Interleave
    Размер файла : 747 Мбайт
    Продолжительность : 1 ч. 58 м.
    Общий поток : 884 Кбит/сек
    Программа кодирования : VirtualDubModRus 1.5.10.2 (build 2542/release)
    Библиотека кодирования : VirtualDubMod build 2542/release

    Видео
    Идентификатор : 0
    Формат : MPEG-4 Visual
    Профиль формата : Advanced Simple@L5
    Параметр BVOP формата : 1
    Параметр QPel формата : Нет
    Параметр GMC формата : Без точки перехода
    Параметр матрицы формата : Выборочная
    Идентификатор кодека : XVID
    Идентификатор кодека/Подсказка : XviD
    Продолжительность : 1 ч. 58 м.
    Битрейт : 747 Кбит/сек
    Ширина : 688 пикселей
    Высота : 288 пикселей
    Соотношение сторон : 2,40:1
    Частота кадров : 23,976 кадра/сек
    Цветовое пространство : YUV
    Субдискретизация насыщенности : 4:2:0
    Битовая глубина : 8 бит
    Тип развёртки : Прогрессивная
    Метод сжатия : С потерями
    Бит/(Пиксели*Кадры) : 0.157
    Размер потока : 631 Мбайт (84%)
    Библиотека кодирования : XviD 64

    Аудио
    Идентификатор : 1
    Формат : MPEG Audio
    Версия формата : Version 1
    Профиль формата : Layer 3
    Режим : Joint stereo
    Расширение режима : MS Stereo
    Идентификатор кодека : 55
    Идентификатор кодека/Подсказка : MP3
    Продолжительность : 1 ч. 58 м.
    Вид битрейта : Постоянный
    Битрейт : 128 Кбит/сек
    Каналы : 2 канала
    Частота : 48,0 КГц
    Метод сжатия : С потерями
    Размер потока : 108 Мбайт (14%)
    Выравнивание : Соединение по промежуткам
    Продолжительность промежутка : 42 мс. (1,00 видеокадр)
    Время предзагрузки промежутка : 504 мс.
    Библиотека кодирования : LAME

    Скриншот с названием



    Скриншоты



    Залил: AVPStudio
    Размер: 746.72 MB (782991360 Bytes)

    Эта - дурацкая - любовь / Crazy, Stupid, Love (2011) BDRip от Youtracker | P торрент скачать бесплатно
    загрузка...
    Рейтинг →
     (голосов: 1, оценка 4/5, голосовать можно 1 раз )

    Другие торренты по теме:

  • Ох уж эта наука / Чудеса науки / Weird Science (1985) DVDRip
  • Однажды эта боль принесет тебе пользу / Someday This Pain Will Be Useful to You (2011) HDRip | P2
  • Ох уж эта наука! / Weird Science (1985) HDTVRip-AVC | D, P, P2, A
  • Ох уж эта наука! / Weird Science (1985) BDRip 720p | D, P, P2, P1, A
  • Ох уж эта наука! / Weird Science (1985) BDRip 1080p | D, P, P2, P1, A
  • Ох уж эта наука! / Чудеса науки / Weird Science (1985) BDRip 1080p от BT-Club
  • Ох уж эта наука! / Чудеса науки / Weird Science (1985) BDRip от Rulya74
  • Ох уж эта наука! / Чудеса науки / Weird Science (1985) BD-Remux скачать бесплатно через торрент


    • Комментарии (0):

      Информация

      Информация

        Посетители, находящиеся в группе Гости, не могут оставлять комментарии в данной новости.

        ↓ Меню



        ↓ Опрос

        А Вы добавили сайт в закладки?
        Да
        Не


        Top 10 за месяц (Фильмы)