.
Авторизация | Регистрация
Хочешь лучшие торренты? Добавь свой email!
Добавить
» » Дядя Шарль / Loncle Charles (2012) HDRip от BitTracker скачать торрент бесплатно




    Дядя Шарль / Loncle Charles (2012) HDRip от BitTracker скачать торрент бесплатно

    Опубликовал: Админ | Дата: 27-02-2015, 11:09 | Просмотров: 372



    Информация о фильме
    Название: Дядя Шарль
    Оригинальное название: L;oncle Charles
    Год выхода: 2012
    Жанр: Комедия
    Режиссер: Этьен Шатилье / Etienne Chatiliez
    В ролях: Эдди Митчелл, Александра Лами, Валери Боннетон, Арно Дюкре, Софи де Фюрст, Тома Соливерес, Клео Ревель, Мадлен Ревель, Брюно Жори, Джо Шеридан

    О фильме:
    Богатый старый француз, последние пятьдесят лет живущий в Новой Зеландии, перед смертью хочет найти оставленную во Франции сестру. Помощница нотариуса узнаёт о поисках, смекнув, что на этом деле можно неплохо подзаработать, тут же предлагает свои услуги. Однако когда поиски заходит в тупик, она решает выдать свою еле сводящую концы с концами кузину за наследницу…




    Страна: Франция
    Студия: Les Productions du Champ Poirier, Path?, TF1 Films Production
    Продолжительность: 01:38:38
    Перевод: Профессиональное (многоголосное) НТВ

    Файл
    Кодек: XviD
    Качество: HDRip исх. BDRip 720p
    Видео: 656x352 (1.86:1), 24.000 fps, XviD build 50 ~918 kbps avg, 0.17 bit/pixel
    Звук: 48 kHz, MPEG Layer 3, 2 ch, ~128.00 kbps avg
    Субтитры: нет

    Семпл

    MediaInfo

    Общее
    Полное имя : S:ФильмыДядя Шарль. 2012. HDRip (AleksSin).avi
    Формат : AVI
    Формат/Информация : Audio Video Interleave
    Размер файла : 745 Мбайт
    Продолжительность : 1 ч. 38 м.
    Общий поток : 1056 Кбит/сек
    Программа кодирования : VirtualDubMod 1.5.10.3 | www.virtualdub-fr.org || (build 2550/release)
    Библиотека кодирования : VirtualDubMod build 2550/release

    Видео
    Идентификатор : 0
    Формат : MPEG-4 Visual
    Профиль формата : Advanced Simple@L5
    Параметр BVOP формата : 2
    Параметр QPel формата : Нет
    Параметр GMC формата : Без точки перехода
    Параметр матрицы формата : Default (H.263)
    Идентификатор кодека : XVID
    Идентификатор кодека/Подсказка : XviD
    Продолжительность : 1 ч. 38 м.
    Битрейт : 918 Кбит/сек
    Ширина : 656 пикс.
    Высота : 352 пикс.
    Соотношение сторон : 1,864
    Частота кадров : 24,000 кадр/сек
    Цветовое пространство : YUV
    Подвыборка цветности : 4:2:0
    Битовая глубина : 8 бит
    Тип развёртки : Прогрессивная
    Метод сжатия : С потерями
    Бит/(Пиксели*Кадры) : 0.166
    Размер потока : 648 Мбайт (87%)
    Библиотека кодирования : XviD 1.2.1 (UTC 2008-12-04)

    Аудио
    Идентификатор : 1
    Формат : MPEG Audio
    Версия формата : Version 1
    Профиль формата : Layer 3
    Идентификатор кодека : 55
    Идентификатор кодека/Подсказка : MP3
    Продолжительность : 1 ч. 38 м.
    Вид битрейта : Постоянный
    Битрейт : 128 Кбит/сек
    Каналы : 2 канала
    Частота : 48,0 КГц
    Метод сжатия : С потерями
    Размер потока : 90,3 Мбайт (12%)
    Выравнивание : Соединение по промежуткам
    Продолжительность промежутка : 42 мс. (1,00 видеокадр)
    Время предзагрузки промежутка : 504 ms
    Библиотека кодирования : LAME3.99r
    Залил: AleksSin
    Размер: 744.84 MB (781017088 Bytes)


    Дядя Шарль / Loncle Charles (2012) HDRip от BitTracker торрент скачать бесплатно
    загрузка...
    Рейтинг →
     (голосов: 1, оценка 3/5, голосовать можно 1 раз )

    Другие торренты по теме:

  • Дядя Шарль / Loncle Charles (2012) BDRip 720p | НТВ скачать через торрент бесплатно
  • Дядя Шарль / Loncle Charles (2012) HDRip | НТВ скачать через торрент бесплатно


    • Комментарии (0):

      Информация

      Информация

        Посетители, находящиеся в группе Гости, не могут оставлять комментарии в данной новости.

        ↓ Меню



        ↓ Опрос

        А Вы добавили сайт в закладки?
        Да
        Не


        Top 10 за месяц (Фильмы)