.
Авторизация | Регистрация
Хочешь лучшие торренты? Добавь свой email!
Добавить
» » Кадры / The Internship (2013) BDRip 720p от MULTIBITS | UNRATED | Лицензия скачать через торрент бесплатно




    Кадры / The Internship (2013) BDRip 720p от MULTIBITS | UNRATED | Лицензия скачать через торрент бесплатно

    Опубликовал: Админ | Дата: 27-02-2015, 11:09 | Просмотров: 271



    Информация о фильме
    Название: Кадры
    Оригинальное название: The Internship
    Год выхода: 2013
    Жанр: Комедия
    Режиссер: Шон Леви
    В ролях: Роуз Бирн, Джон Гудмен, Винс Вон, Оуэн Уилсон, Чути Тью, Джоэнна Гарсиа, Джош Гад, Джессика Зор, Дилан О’Брайэн, Б.Дж. Новак, Макс Мингелла

    О фильме:
    Недавно уволенные друзья, которым уже за сорок, решают устроиться в качестве стажеров в успешную интернет-компанию, руководители которой вдвое моложе.



    Выпущено: США / 21 Laps Entertainment, Regency Enterprises, Twentieth Century Fox Film Corporation
    Продолжительность: 02:05:15
    Озвучивание: Дублированное лицензия
    Примечание: UNRATED версия! Полный перевод

    Файл
    Формат: MKV (x264)
    Качество: BDRip 720p
    Видео: 4555 Кбит/с, 1280x544
    Звук: DTS, 768 Кбит/с (6 ch)
    Субтитры: Русские
    Дополнительно: Сохранены оригинальные чаптеры

    Семпл



    MI
    Format : Matroska
    Format version : Version 4 / Version 2
    File size : 4.74 GiB
    Duration : 2h 5mn
    Overall bit rate : 5 431 Kbps
    Encoded date : UTC 2013-10-10 18:57:00
    Writing application : mkvmerge v6.4.1 (;Omega Point;) built on Sep 16 2013 22:05:10
    Writing library : libebml v1.3.0 libmatroska v1.4.1

    Video
    ID : 1
    Format : AVC
    Format/Info : Advanced Video Codec
    Format profile : High@L4.1
    Format settings, CABAC : Yes
    Format settings, ReFrames : 5 frames
    Codec ID : V_MPEG4/ISO/AVC
    Duration : 2h 5mn
    Bit rate : 4 555 Kbps
    Width : 1 280 pixels
    Height : 544 pixels
    Display aspect ratio : 2.35:1
    Frame rate mode : Constant
    Frame rate : 23.976 fps
    Color space : YUV
    Chroma subsampling : 4:2:0
    Bit depth : 8 bits
    Scan type : Progressive
    Bits/(Pixel*Frame) : 0.273
    Stream size : 3.98 GiB (84%)
    Language : English
    Default : Yes
    Forced : No

    Audio
    ID : 2
    Format : DTS
    Format/Info : Digital Theater Systems
    Mode : 16
    Format settings, Endianness : Big
    Codec ID : A_DTS
    Duration : 2h 5mn
    Bit rate mode : Constant
    Bit rate : 768 Kbps
    Channel count : 6 channels
    Channel positions : Front: L C R, Side: L R, LFE
    Sampling rate : 48.0 KHz
    Bit depth : 24 bits
    Compression mode : Lossy
    Stream size : 687 MiB (14%)
    Language : Russian
    Default : No
    Forced : No

    Text
    ID : 3
    Format : PGS
    Muxing mode : zlib
    Codec ID : S_HDMV/PGS
    Codec ID/Info : The same subtitle format used on BDs/HD-DVDs
    Language : Russian
    Default : No
    Forced : No

    Menu
    00:00:00.000 : en:00:00:00.000
    00:05:28.036 : en:00:05:28.036
    00:07:50.428 : en:00:07:50.428
    00:14:21.569 : en:00:14:21.569
    00:19:40.387 : en:00:19:40.387
    00:25:58.932 : en:00:25:58.932
    00:28:59.780 : en:00:28:59.780
    00:32:37.372 : en:00:32:37.372
    00:35:04.769 : en:00:35:04.769
    00:36:19.344 : en:00:36:19.344
    00:41:52.009 : en:00:41:52.009
    00:44:34.922 : en:00:44:34.922
    00:48:04.840 : en:00:48:04.840
    00:50:37.576 : en:00:50:37.576
    00:58:27.754 : en:00:58:27.754
    01:02:17.776 : en:01:02:17.776
    01:06:08.798 : en:01:06:08.798
    01:11:12.852 : en:01:11:12.852
    01:14:02.646 : en:01:14:02.646
    01:15:46.917 : en:01:15:46.917
    01:18:54.438 : en:01:18:54.438
    01:21:27.299 : en:01:21:27.299
    01:24:11.630 : en:01:24:11.630
    01:26:07.078 : en:01:26:07.078
    01:27:57.731 : en:01:27:57.731
    01:29:37.497 : en:01:29:37.497
    01:31:39.911 : en:01:31:39.911
    01:37:15.788 : en:01:37:15.788
    01:42:32.938 : en:01:42:32.938
    01:48:12.819 : en:01:48:12.819
    01:54:18.810 : en:01:54:18.810
    01:57:37.634 : en:01:57:37.634
    Скриншоты


    Релиз от:
    Размер: 4.74 GB (5092404513 Bytes)

    Кадры / The Internship (2013) BDRip 720p от MULTIBITS | UNRATED | Лицензия скачать через торрент бесплатно
    загрузка...
    Рейтинг →
     (голосов: 1, оценка 3/5, голосовать можно 1 раз )

    Другие торренты по теме:

  • Кадры / The Internship (2013) HD 1080p | Трейлер
  • Кадры / The Internship (2013) WEB-DL 720p | UNRATED | Звук с TS
  • Кадры / The Internship (2013) WEB-DLRip | Theatrical | Звук с TS
  • Кадры / The Internship (2013) WEB-DLRip | UNRATED | Звук с TS
  • Кадры / The Internship (2013) WEB-DLRip от Х-TORRENTS | Расширенная версия | Звук с TS
  • Кадры / The Internship (2013) BDRemux 1080p | UNRATED | Лицензия скачать через торрент бесплатно
  • Кадры / The Internship (2013) HDRip | UNRATED | Лицензия скачать через торрент бесплатно
  • Кадры / The Internship (2013) HDRip от Scarabey | D | Лицензия | Расширенная версия


    • Комментарии (0):

      Информация

      Информация

        Посетители, находящиеся в группе Гости, не могут оставлять комментарии в данной новости.

        ↓ Меню



        ↓ Опрос

        А Вы добавили сайт в закладки?
        Да
        Не


        Top 10 за месяц (Фильмы)