.
Авторизация | Регистрация
Хочешь лучшие торренты? Добавь свой email!
Добавить
» » Мой будущий тесть – аферист / Lionhead (2013) WEB-DLRip от BitTracker скачать торрент бесплатно




    Мой будущий тесть – аферист / Lionhead (2013) WEB-DLRip от BitTracker скачать торрент бесплатно

    Опубликовал: Админ | Дата: 27-02-2015, 11:09 | Просмотров: 343



    Информация о фильме
    Название: Мой будущий тесть – аферист
    Оригинальное название: Lionhead
    Год выхода: 2013
    Жанр: драма, комедия, криминал
    Режиссер: Томми Реннер / Tommy Rennier
    В ролях: Трэвор Лиссауер, Брайан Перри, Майкл Мэдсен, Джилл Креншоу, Дэниэл Робак, Дирдри Лавджой, Кэролайн Морахэн, Рэй Уайз, Ричард Рили, Дуан Уайтакер

    О фильме:
    Фрэнк, молодой человек, отчаянно хочет жениться на своей подруге, Дарлин, против желания ее отца. Когда Фрэнк наследует большую сумму денег, он решает купить кольцо и сделать предложение. К сожалению, он покупает кольцо вместе с Тедом, мошенником — авантюристом. Родители невесты, быстро определяют подделку и грозятся разорвать помолвку. Фрэнку приходится находить различные ухищрения, чтобы свадьба состоялась.




    Страна: США
    Студия: Grandpa Rennier Productions, Milkman Max Productions, Meyermore Productions
    Продолжительность: 01:36:00
    Перевод: Профессиональное (многоголосное)

    Файл
    Кодек: XviD
    Качество: WEB-DLRip (Исх. WEB-DLRip 720p)
    Видео: 656x272 (2.41:1), 25 fps, XviD build 50 ~948 kbps avg, 0.21 bit/pixel
    Звук: 48 kHz, MPEG Layer 3, 2 ch, ~128.00 kbps avg
    Субтитры: нет

    Семпл

    MediaInfo

    Общее
    Полное имя : S:ФильмыМой будущий тесть – аферист. 2013. WEB-DLRip (AleksSin).avi
    Формат : AVI
    Формат/Информация : Audio Video Interleave
    Размер файла : 745 Мбайт
    Продолжительность : 1 ч. 36 м.
    Общий поток : 1086 Кбит/сек
    Программа кодирования : VirtualDubMod 1.5.10.3 | www.virtualdub-fr.org || (build 2550/release)
    Библиотека кодирования : VirtualDubMod build 2550/release

    Видео
    Идентификатор : 0
    Формат : MPEG-4 Visual
    Профиль формата : Advanced Simple@L5
    Параметр BVOP формата : 2
    Параметр QPel формата : Нет
    Параметр GMC формата : Без точки перехода
    Параметр матрицы формата : Default (H.263)
    Идентификатор кодека : XVID
    Идентификатор кодека/Подсказка : XviD
    Продолжительность : 1 ч. 36 м.
    Битрейт : 948 Кбит/сек
    Ширина : 656 пикс.
    Высота : 272 пикс.
    Соотношение сторон : 2,40:1
    Частота кадров : 25,000 кадр/сек
    Цветовое пространство : YUV
    Подвыборка цветности : 4:2:0
    Битовая глубина : 8 бит
    Тип развёртки : Прогрессивная
    Метод сжатия : С потерями
    Бит/(Пиксели*Кадры) : 0.212
    Размер потока : 651 Мбайт (87%)
    Библиотека кодирования : XviD 1.2.1 (UTC 2008-12-04)

    Аудио
    Идентификатор : 1
    Формат : MPEG Audio
    Версия формата : Version 1
    Профиль формата : Layer 3
    Идентификатор кодека : 55
    Идентификатор кодека/Подсказка : MP3
    Продолжительность : 1 ч. 36 м.
    Вид битрейта : Постоянный
    Битрейт : 128 Кбит/сек
    Каналы : 2 канала
    Частота : 48,0 КГц
    Метод сжатия : С потерями
    Размер потока : 87,9 Мбайт (12%)
    Выравнивание : Соединение по промежуткам
    Продолжительность промежутка : 40 мс. (1,00 видеокадр)
    Время предзагрузки промежутка : 504 ms
    Библиотека кодирования : LAME3.99r
    Залил: AleksSin
    Размер: 745.44 MB (781649920 Bytes)


    Мой будущий тесть – аферист / Lionhead (2013) WEB-DLRip от BitTracker торрент скачать бесплатно
    загрузка...
    Рейтинг →
     (голосов: 1, оценка 3/5, голосовать можно 1 раз )

    Другие торренты по теме:

  • Мой будущий тесть – аферист / Lionhead (2013) WEB-DLRip
  • Мой будущий тесть - аферист / Lionhead (2013) WEB-DL 1080p от MegaPeer


    • Комментарии (0):

      Информация

      Информация

        Посетители, находящиеся в группе Гости, не могут оставлять комментарии в данной новости.

        ↓ Меню



        ↓ Опрос

        А Вы добавили сайт в закладки?
        Да
        Не


        Top 10 за месяц (Фильмы)