.
Авторизация | Регистрация
Хочешь лучшие торренты? Добавь свой email!
Добавить
» » Остров смерти / Black Rock (2012) HDRip от BitTracker | Нтв скачать торрент бесплатно




    Остров смерти / Black Rock (2012) HDRip от BitTracker | Нтв скачать торрент бесплатно

    Опубликовал: Админ | Дата: 27-02-2015, 11:09 | Просмотров: 1205



    Информация о фильме
    Название: Остров смерти
    Оригинальное название: Black Rock
    Год выхода: 2012
    Жанр: ужасы, триллер
    Режиссер: Кэтрин Аселтон / Kathryn Aselton
    В ролях: Кэтрин Аселтон, Лэйк Белл, Кейт Босворт, Уилл Бовье, Джей Полсон, Анслем Ричардсон, Карл К. Аселтон III, Др. Карл Аселтон, Генри Барронс, Джон Дэвис, Рон Грин, Майкл Куни

    О фильме:
    Три подруги детства решают устроить пикник на удаленном острове. Однако незапланированная встреча с агрессивно настроенными ветеранами иракской войны превращает отдых в сущий кошмар.



    Страна: США
    Продолжительность: 01:19:52
    Перевод: Профессиональное (многоголосое) Нтв

    Файл
    Кодек: XviD (Исх. BDRip 1080p)
    Качество: HDRip
    Видео: 656x352 (1.86:1), 23.976 fps, XviD build 50 ~1166 kbps avg, 0.21 bit/pixel
    Звук: 48 kHz, MPEG Layer 3, 2 ch, ~128.00 kbps avg
    Субтитры: нет

    Семпл

    MediaInfo

    Общее
    Полное имя : S:ФильмыОстров смерти. 2012. HDRip. (AleksSin).avi
    Формат : AVI
    Формат/Информация : Audio Video Interleave
    Размер файла : 744 Мбайт
    Продолжительность : 1 ч. 19 м.
    Общий поток : 1303 Кбит/сек
    Программа кодирования : VirtualDubMod 1.5.10.3 | www.virtualdub-fr.org || (build 2550/release)
    Библиотека кодирования : VirtualDubMod build 2550/release

    Видео
    Идентификатор : 0
    Формат : MPEG-4 Visual
    Профиль формата : Advanced Simple@L5
    Параметр BVOP формата : 2
    Параметр QPel формата : Нет
    Параметр GMC формата : Без точки перехода
    Параметр матрицы формата : Default (H.263)
    Идентификатор кодека : XVID
    Идентификатор кодека/Подсказка : XviD
    Продолжительность : 1 ч. 19 м.
    Битрейт : 1166 Кбит/сек
    Ширина : 656 пикс.
    Высота : 352 пикс.
    Соотношение сторон : 1,864
    Частота кадров : 23,976 кадр/сек
    Цветовое пространство : YUV
    Подвыборка цветности : 4:2:0
    Битовая глубина : 8 бит
    Тип развёртки : Прогрессивная
    Метод сжатия : С потерями
    Бит/(Пиксели*Кадры) : 0.211
    Размер потока : 666 Мбайт (89%)
    Библиотека кодирования : XviD 1.2.1 (UTC 2008-12-04)

    Аудио
    Идентификатор : 1
    Формат : MPEG Audio
    Версия формата : Version 1
    Профиль формата : Layer 3
    Идентификатор кодека : 55
    Идентификатор кодека/Подсказка : MP3
    Продолжительность : 1 ч. 19 м.
    Вид битрейта : Постоянный
    Битрейт : 128 Кбит/сек
    Каналы : 2 канала
    Частота : 48,0 КГц
    Метод сжатия : С потерями
    Размер потока : 73,1 Мбайт (10%)
    Выравнивание : Соединение по промежуткам
    Продолжительность промежутка : 42 мс. (1,00 видеокадр)
    Время предзагрузки промежутка : 504 ms
    Библиотека кодирования : LAME3.99r
    Залил: AleksSin
    Размер: 744.32 MB (780480512 Bytes)


    Остров смерти / Black Rock (2012) HDRip от BitTracker | Нтв торрент скачать бесплатно
    загрузка...
    Рейтинг →
     (голосов: 1, оценка 3/5, голосовать можно 1 раз )

    Другие торренты по теме:

  • Остров смерти / Black Rock (2012) WEB-DLRip
  • Остров смерти / Black Rock (2012) DVB от ClubTorrent | P2 скачать бесплатно через торрент
  • Нападение на Остров Дьявола 2: Гора Смерти / Shadow Warriors II: Hunt for the Death Merchant (1998) DVDRip от FilmRus | P скачать через торрент бесплатно


    • Комментарии (0):

      Информация

      Информация

        Посетители, находящиеся в группе Гости, не могут оставлять комментарии в данной новости.

        ↓ Меню



        ↓ Опрос

        А Вы добавили сайт в закладки?
        Да
        Не


        Top 10 за месяц (Фильмы)