.
Авторизация | Регистрация
Хочешь лучшие торренты? Добавь свой email!
Добавить
» » Судная ночь / The Purge (2013) HDRip от BitTracker | Лицензия скачать торрент бесплатно




    Судная ночь / The Purge (2013) HDRip от BitTracker | Лицензия скачать торрент бесплатно

    Опубликовал: Админ | Дата: 27-02-2015, 11:09 | Просмотров: 388



    Информация о фильме
    Название: Судная ночь
    Оригинальное название: The Purge
    Год выхода: 2013
    Жанр: Триллер, ужасы
    Режиссер: Джеймс ДеМонако / James DeMonaco
    В ролях: Итан Хоук, Лина Хиди, Макс Буркхолдер, Аделаида Кэйн, Эдвин Ходж, Риз Уэйкфилд, Тони Оллер, Ария Барейкис, Том Йи, Крис Малки

    О фильме:
    Мир будущего - мир без преступности, безработицы и войн. И все это благодаря одной ночи в году, когда можно отправить на тот свет любого - злобного босса, шумных соседей, надоевших родственников. В Судную ночь дозволено все - главное дожить до рассвета.




    Страна: США, Франция
    Студия: Blumhouse Productions, Platinum Dunes, Universal International Pictures
    Продолжительность: 01:25:18
    Перевод: Дублированный лицензия

    Файл
    Кодек: XviD
    Качество: HDRip (Исх. BDRip 1080p)
    Видео: 688x288 (2.39:1), 23.976 fps, XviD build 50 ~1083 kbps avg, 0.23 bit/pixel
    Звук: 48 kHz, MPEG Layer 3, 2 ch, ~128.00 kbps avg
    Субтитры: нет

    Семпл

    MediaInfo

    Общее
    Полное имя : S:ФильмыСудная ночь. 2013. HDRip. (AleksSin).avi
    Формат : AVI
    Формат/Информация : Audio Video Interleave
    Размер файла : 745 Мбайт
    Продолжительность : 1 ч. 25 м.
    Общий поток : 1220 Кбит/сек
    Программа кодирования : VirtualDubMod 1.5.10.3 | www.virtualdub-fr.org || (build 2550/release)
    Библиотека кодирования : VirtualDubMod build 2550/release

    Видео
    Идентификатор : 0
    Формат : MPEG-4 Visual
    Профиль формата : Advanced Simple@L5
    Параметр BVOP формата : 2
    Параметр QPel формата : Нет
    Параметр GMC формата : Без точки перехода
    Параметр матрицы формата : Default (H.263)
    Идентификатор кодека : XVID
    Идентификатор кодека/Подсказка : XviD
    Продолжительность : 1 ч. 25 м.
    Битрейт : 1083 Кбит/сек
    Ширина : 688 пикс.
    Высота : 288 пикс.
    Соотношение сторон : 2,40:1
    Частота кадров : 23,976 кадр/сек
    Цветовое пространство : YUV
    Подвыборка цветности : 4:2:0
    Битовая глубина : 8 бит
    Тип развёртки : Прогрессивная
    Метод сжатия : С потерями
    Бит/(Пиксели*Кадры) : 0.228
    Размер потока : 661 Мбайт (89%)
    Библиотека кодирования : XviD 1.2.1 (UTC 2008-12-04)

    Аудио
    Идентификатор : 1
    Формат : MPEG Audio
    Версия формата : Version 1
    Профиль формата : Layer 3
    Идентификатор кодека : 55
    Идентификатор кодека/Подсказка : MP3
    Продолжительность : 1 ч. 25 м.
    Вид битрейта : Постоянный
    Битрейт : 128 Кбит/сек
    Каналы : 2 канала
    Частота : 48,0 КГц
    Метод сжатия : С потерями
    Размер потока : 78,0 Мбайт (10%)
    Выравнивание : Соединение по промежуткам
    Продолжительность промежутка : 42 мс. (1,00 видеокадр)
    Время предзагрузки промежутка : 504 ms
    Библиотека кодирования : LAME3.99r
    Залил: AleksSin
    Размер: 744.63 MB (780802048 Bytes)


    Судная ночь / The Purge (2013) HDRip от BitTracker | Лицензия торрент скачать бесплатно
    загрузка...
    Рейтинг →
     (голосов: 1, оценка 5/5, голосовать можно 1 раз )

    Другие торренты по теме:

  • Судная ночь / The Purge (2013) BDRip 1080 | D, A
  • Судная ночь / The Purge (2013) HD 1080p | Трейлер
  • Судная ночь / The Purge (2013) BDRip 1080p | D | iTunes Russia
  • Судная ночь / The Purge (2013) BDRip-AVC | D | iTunes Russia
  • Судная ночь / The Purge (2013) BDRip 720p от leonardo 59 Scarabey | iTunes Russia скачать через торрент бесплатно
  • Судная ночь / The Purge (2013) BDRip 720p от DHT-Movies | iTunes Russia скачать через торрент бесплатно
  • Судная ночь / The Purge (2013) BDRip-AVC от HELLYWOOD | iTunes Russia скачать через торрент бесплатно
  • Судная ночь / The Purge (2013) BDRip 720p от MULTIBITS | iTunes Russia скачать через торрент бесплатно


    • Комментарии (0):

      Информация

      Информация

        Посетители, находящиеся в группе Гости, не могут оставлять комментарии в данной новости.

        ↓ Меню



        ↓ Опрос

        А Вы добавили сайт в закладки?
        Да
        Не


        Top 10 за месяц (Фильмы)