.
Авторизация | Регистрация
Хочешь лучшие торренты? Добавь свой email!
Добавить
» » Я плюю на ваши могилы 1-2: Дилогия / I Spit on Your Grave 1-2: Dilogy (2010-2013) BDRip от Deadmauvlad | D | Лицензия скачать торрент бесплатно




    Я плюю на ваши могилы 1-2: Дилогия / I Spit on Your Grave 1-2: Dilogy (2010-2013) BDRip от Deadmauvlad | D | Лицензия скачать торрент бесплатно

    Опубликовал: Админ | Дата: 27-02-2015, 11:09 | Просмотров: 470


    Я плюю на ваши могилы 1-2 Дилогия / I Spit on Your Grave 1-2 Dilogy



    Я плюю на ваши могилы / I Spit on Your Grave (2010)/size
    Страна: США
    Жанр: ужасы, триллер
    Год выпуска: 2010
    Продолжительность: 01:48:14
    Перевод: Профессиональный (дублированный)
    Cубтитры: нет

    Режиссер: Стивен Р. Монро / Steven R. Monroe

    В ролях: Сара Батлер, Чэд Линдберг, Дэниел Фрэнзиси, Трейси Уолтер, Эндрю Ховард, Джефф Брэнсон, Родни Истман, Молли Миллиган, Саксон Шарбино

    Описание: Молодая писательница Дженнифер снимает домик в глухом лесу, чтобы в уединении написать роман. Но издатель не дождется нового бестселлера… Четверо местных отморозков жестоко насилуют девушку и обрекают ее на мучительную смерть. Но Дженнифер сумела выжить и теперь ее единственная цель — месть. И месть эта будет столь ужасной, что бывшие насильники проклянут тот день, когда встретили ее впервые…



    semple.avi

    Качество: BDRip
    Формат: AVI
    Видео кодек: H.264
    Аудио кодек: AC3
    Видео: 688x384 (1.79:1), 29.970 fps, Intel ITU H.264 ~1742 kbps avg, 0.22 bit/pixel
    Аудио: 48 kHz, AC3 Dolby Digital, 3/2 (L,C,R,l,r) LFE ch, ~160 kbps

    MI
    Общее
    Полное имя : C:UsersDeadmauvladDesktopЯ плюю на ваши могилы 1-2 BDRip.D.DeadmauvladЯ плюю на ваши могилы.2010.BDRip.Deadmauvlad.avi
    Формат : AVI
    Формат/Информация : Audio Video Interleave
    Размер файла : 1,44 Гбайт
    Продолжительность : 1 ч. 47 м.
    Общий поток : 1914 Кбит/сек
    Название фильма : I.Spit.on.Your.Grave.2010.BDRip.Deadmauvlad
    Режиссёр : Deadmauvlad
    Жанр : Horror
    Программа кодирования : VirtualDubMod 1.5.10.3 | www.virtualdub-fr.org || (build 2550/release)
    Формат оригинала/Имя : Film

    Видео
    Идентификатор : 0
    Формат : AVC
    Формат/Информация : Advanced Video Codec
    Профиль формата : Baseline@L3.0
    Параметр CABAC формата : Нет
    Параметр ReFrames формата : 1 кадр
    Идентификатор кодека : H264
    Продолжительность : 1 ч. 47 м.
    Битрейт : 1743 Кбит/сек
    Ширина : 688 пикселей
    Высота : 384 пикселя
    Соотношение сторон : 16:9
    Частота кадров : 29,970 кадров/сек
    Частота кадров в оригинале : 29,000 кадров/сек
    Цветовое пространство : YUV
    Субдискретизация насыщенности : 4:2:0
    Битовая глубина : 8 бит
    Тип развёртки : Прогрессивная
    Бит/(Пиксели*Кадры) : 0.220
    Размер потока : 1,31 Гбайт (91%)
    Библиотека кодирования : h

    Аудио
    Идентификатор : 1
    Формат : AC-3
    Формат/Информация : Audio Coding 3
    Расширение режима : CM (complete main)
    Параметр Endianness формата : Big
    Идентификатор кодека : 2000
    Продолжительность : 1 ч. 47 м.
    Вид битрейта : Постоянный
    Битрейт : 160 Кбит/сек
    Каналы : 6 каналов
    Расположение каналов : Front: L C R, Side: L R, LFE
    Частота : 48,0 КГц
    Битовая глубина : 16 бит
    Метод сжатия : С потерями
    Размер потока : 124 Мбайт (8%)
    Выравнивание : Разделение по промежуткам
    Продолжительность промежутка : 33 мс. (1,00 видеокадр)
    Время предзагрузки промежутка : 500 мс.

    Скрин с название фильма


    Скриншоты







    size=2Я плюю на ваши могилы 2 / I Spit on Your Grave 2 (2013)
    Информация о фильме
    Название: Я плюю на ваши могилы 2
    Оригинальное название: I Spit on Your Grave 2
    Жанр: ужасы, драма, криминальный
    Страна: США
    Год выпуска: 2013
    Режиссер: Стивен Р. Монро
    В ролях: Джемма Даллендер, Джо Эбсолом, Явор Бахаров, Александр Алексеев, Мэри Стокли, Майкл Диксон, Валентайн Пелка, Питер Сильверлиф, Джордж Златарев, Георгий Златарев

    О фильме: Красавица Кэти только что переехала в Нью-Йорк, чтобы сделать карьеру модели. Но девичьи мечты о роскошной жизни разбиваются: ее насилуют, пытают, а вскоре похищают и увозят в непонятном направлении. Кэти оказывается одна в чужой стране, где ее почти что похоронят заживо. Чудом избежав смерти, девушка решает жестоко отомстить обидчикам…

    Продолжительность: 01:46:11
    Качество: BDRip
    Формат: AVI
    Видео кодек: Xvid
    Аудио кодек: AC3
    Видео: 688x384 (1.79:1), 29.970 fps, XviD build 50 ~1533 kbps avg, 0.19 bit/pixel
    Аудио: 48 kHz, AC3 Dolby Digital, 3/2 (L,C,R,l,r) LFE ch, ~320 kbps

    semple 2.avi


    MI
    Общее
    Полное имя : C:UsersDeadmauvladDesktopЯ плюю на ваши могилы 1-2 BDRip.D.DeadmauvladЯ плюю на ваши могилы 2(Расширенная версия).avi
    Формат : AVI
    Формат/Информация : Audio Video Interleave
    Размер файла : 1,38 Гбайт
    Продолжительность : 1 ч. 46 м.
    Общий поток : 1865 Кбит/сек
    Название фильма : I.Spit.on.Your.Grave.2(Расширенная версия)
    Режиссёр : Deadmauvlad
    Жанр : Horror
    Программа кодирования : VirtualDubMod 1.5.10.3 | www.virtualdub-fr.org || (build 2550/release)
    Формат оригинала/Имя : Film

    Видео
    Идентификатор : 0
    Формат : MPEG-4 Visual
    Профиль формата : Simple@L3
    Параметр BVOP формата : Нет
    Параметр QPel формата : Нет
    Параметр GMC формата : Без точки перехода
    Параметр матрицы формата : Default (H.263)
    Идентификатор кодека : XVID
    Идентификатор кодека/Подсказка : XviD
    Продолжительность : 1 ч. 46 м.
    Битрейт : 1533 Кбит/сек
    Ширина : 688 пикселей
    Высота : 384 пикселя
    Соотношение сторон : 16:9
    Частота кадров : 29,970 кадров/сек
    Частота кадров в оригинале : 29,000 кадров/сек
    Цветовое пространство : YUV
    Субдискретизация насыщенности : 4:2:0
    Битовая глубина : 8 бит
    Тип развёртки : Прогрессивная
    Метод сжатия : С потерями
    Бит/(Пиксели*Кадры) : 0.194
    Размер потока : 1,14 Гбайт (82%)
    Библиотека кодирования : XviD 1.2.1 (UTC 2008-12-04)

    Аудио
    Идентификатор : 1
    Формат : AC-3
    Формат/Информация : Audio Coding 3
    Расширение режима : CM (complete main)
    Параметр Endianness формата : Big
    Идентификатор кодека : 2000
    Продолжительность : 1 ч. 46 м.
    Вид битрейта : Постоянный
    Битрейт : 320 Кбит/сек
    Каналы : 6 каналов
    Расположение каналов : Front: L C R, Side: L R, LFE
    Частота : 48,0 КГц
    Битовая глубина : 16 бит
    Метод сжатия : С потерями
    Размер потока : 243 Мбайт (17%)
    Выравнивание : Разделение по промежуткам
    Продолжительность промежутка : 33 мс. (1,00 видеокадр)
    Время предзагрузки промежутка : 500 мс.

    Скрин с название фильма


    Скриншоты

    align=center




    /align

    Залил: deadmauvlad
    Размер: 2.83 GB (3034884096 Bytes)

    Я плюю на ваши могилы 1-2: Дилогия / I Spit on Your Grave 1-2: Dilogy (2010-2013) BDRip от Deadmauvlad | D | Лицензия торрент скачать бесплатно
    загрузка...
    Рейтинг →
     (голосов: 1, оценка 5/5, голосовать можно 1 раз )

    Другие торренты по теме:

  • День женщины / Я плюю на твою могилу / I Spit On Your Grave / Day of the Woman (1978) BDRip 1080p от NovaLan
  • Я плюю на ваши могилы / I Spit on Your Grave (2010) HDRip от Scarabey | Расширенная версия
  • Я плюю на ваши могилы 2 / I Spit on Your Grave 2 (2013) HDRip| UNRATED | L1
  • Я плюю на ваши могилы 2 / I Spit On Your Grave 2 (2013) HDRip | UNRATED | L1
  • Я плюю на ваши могилы 2 / I Spit On Your Grave 2 (2013) BDRip-AVC 1080p | UNRATED | L1 | Звук с TS
  • Я плюю на ваши могилы 2 / I Spit On Your Grave 2 (2013) BDRip-AVC 720p | UNRATED | L1 | Звук с TS
  • Я плюю на ваши могилы 2 / I Spit On Your Grave 2 (2013) BDRip-AVC | UNRATED | L1 | Звук с TS
  • Я плюю на ваши могилы 2 / I Spit On Your Grave 2 (2013) BDRip-AVC от HELLYWOOD | UNRATED | L1


    • Комментарии (0):

      Информация

      Информация

        Посетители, находящиеся в группе Гости, не могут оставлять комментарии в данной новости.

        ↓ Меню



        ↓ Опрос

        А Вы добавили сайт в закладки?
        Да
        Не


        Top 10 за месяц (Фильмы)