.
Авторизация | Регистрация
Хочешь лучшие торренты? Добавь свой email!
Добавить
» » Тихоокеанский рубеж / Pacific Rim (2013) BDRip 1080p | D скачать через торрент бесплатно




    Тихоокеанский рубеж / Pacific Rim (2013) BDRip 1080p | D скачать через торрент бесплатно

    Опубликовал: Админ | Дата: 27-02-2015, 11:09 | Просмотров: 340



    Информация о фильме
    Название: Тихоокеанский рубеж
    Оригинальное название: Pacific Rim
    Год выпуска: 2013
    Жанр: Фантастика, фэнтези, боевик, приключения
    Выпущено: США, Legendary Pictures
    Режиссер: Гильермо дель Торо
    В ролях: Чарли Ханнэм, Идрис Эльба, Ринко Кикучи, Чарли Дэй, Роберт Казински, Макс Мартини, Рон Перлман, Клифтон Коллинз мл., Диего Клаттенхофф, Берн Горман

    О фильме: Когда из морских глубин поднялись легионы чудовищ, известных как Кайдзу, началась война, которой суждено было забрать миллионы жизней и свести человеческие ресурсы почти к нулю всего за несколько лет. Чтобы сражаться с пришельцами, было создано специальное оружие: огромные роботы, названные Джегерами, они управлялись одновременно двумя пилотами, чьи сознания соединены с помощью нейронной связи. Но даже Джегеры оказываются почти бессильны перед лицом безжалостных Кайдзу. На грани поражения у защитников человечества нет выбора, кроме как обратиться к двум весьма сомнительным героям — никому не нужному бывшему пилоту и неопытному стажеру — которые объединились, чтобы повести в бой некогда легендарного, но сейчас устаревшего Джегера. Вместе они оказываются единственной надеждой человечества, последним препятствием перед надвигающимся апокалипсисом.



    Файл
    Качество: BDRip (1080p)
    Видео: MPEG-4 AVC, 13.3 Мбит/с, 1920x1080, 23.976 кадр/с
    Аудио: Русский (AC3, 6 ch, 384 Кбит/с), английский (DTS, 6 ch, 1510 Кбит/с)
    Размер: 14.24 ГБ
    Продолжительность: 02:11:14
    Перевод: Дублированный любительский дубляж
    Субтитры: Английские, испанские, французские, португальские
    Важно!
    В раздаче разместил сэмпл качайте слушайте. Эту озвучку даже не знаю как обозвать. Качайте сэмпл и решайте сами на что она похожа!


    Семпл
    MI
    Общее
    Уникальный идентификатор : 172308906616057422206695416236331152224 (0x81A17D00D004D24EB6F0AF6530C6B360)
    Полное имя : D:New folderTihookeanskij.Rubej.2013.D.BDRip.1080.mkv
    Формат : Matroska
    Версия формата : Version 2
    Размер файла : 14,2 Гбайт
    Продолжительность : 2 ч. 11 м.
    Режим общего битрейта : Переменный
    Общий поток : 15,5 Мбит/сек
    Дата кодирования : UTC 2013-10-06 03:03:11
    Программа кодирования : mkvmerge v6.3.0 (;You can;t stop me!;) built on Jun 28 2013 20:09:41
    Библиотека кодирования : libebml v1.3.0 libmatroska v1.4.0

    Видео
    Идентификатор : 1
    Формат : AVC
    Формат/Информация : Advanced Video Codec
    Профиль формата : High@L4.1
    Параметр CABAC формата : Да
    Параметр ReFrames формата : 4 кадра
    Идентификатор кодека : V_MPEG4/ISO/AVC
    Продолжительность : 2 ч. 11 м.
    Битрейт : 13,3 Мбит/сек
    Ширина : 1920 пикселей
    Высота : 1080 пикселей
    Соотношение сторон : 16:9
    Режим частоты кадров : Постоянный
    Частота кадров : 23,976 кадра/сек
    Цветовое пространство : YUV
    Субдискретизация насыщенности : 4:2:0
    Битовая глубина : 8 бит
    Тип развёртки : Прогрессивная
    Бит/(Пиксели*Кадры) : 0.267
    Размер потока : 12,2 Гбайт (85%)
    Язык : English
    Default : Да
    Forced : Нет

    Аудио #1
    Идентификатор : 2
    Формат : AC-3
    Формат/Информация : Audio Coding 3
    Расширение режима : CM (complete main)
    Параметр Endianness формата : Big
    Идентификатор кодека : A_AC3
    Продолжительность : 2 ч. 11 м.
    Вид битрейта : Постоянный
    Битрейт : 384 Кбит/сек
    Каналы : 6 каналов
    Расположение каналов : Front: L C R, Side: L R, LFE
    Частота : 48,0 КГц
    Битовая глубина : 16 бит
    Метод сжатия : С потерями
    Размер потока : 361 Мбайт (2%)
    Язык : Russian
    Default : Да
    Forced : Нет

    Аудио #2
    Идентификатор : 3
    Формат : DTS
    Формат/Информация : Digital Theater Systems
    Режим : 16
    Параметр Endianness формата : Big
    Идентификатор кодека : A_DTS
    Продолжительность : 2 ч. 11 м.
    Вид битрейта : Постоянный
    Битрейт : 1509 Кбит/сек
    Каналы : 6 каналов
    Расположение каналов : Front: L C R, Side: L R, LFE
    Частота : 48,0 КГц
    Битовая глубина : 24 бит
    Метод сжатия : С потерями
    Размер потока : 1,38 Гбайт (10%)
    Язык : English
    Default : Нет
    Forced : Нет

    Аудио #3
    Идентификатор : 4
    Формат : Vorbis
    Параметр Floor формата : 1
    Идентификатор кодека : A_VORBIS
    Продолжительность : 2 ч. 11 м.
    Вид битрейта : Переменный
    Битрейт : 64,0 Кбит/сек
    Каналы : 2 канала
    Частота : 48,0 КГц
    Метод сжатия : С потерями
    Размер потока : 60,1 Мбайт (0%)
    Библиотека кодирования : aoTuV 20110424 (UTC 2011-04-24)
    Язык : English
    Default : Нет
    Forced : Нет

    Текст #1
    Идентификатор : 5
    Формат : UTF-8
    Идентификатор кодека : S_TEXT/UTF8
    Идентификатор кодека/Информация : UTF-8 Plain Text
    Язык : English
    Default : Нет
    Forced : Нет

    Текст #2
    Идентификатор : 6
    Формат : PGS
    Режим смешивания : zlib
    Идентификатор кодека : S_HDMV/PGS
    Идентификатор кодека/Информация : The same subtitle format used on BDs/HD-DVDs
    Язык : English
    Default : Нет
    Forced : Нет

    Текст #3
    Идентификатор : 7
    Формат : PGS
    Режим смешивания : zlib
    Идентификатор кодека : S_HDMV/PGS
    Идентификатор кодека/Информация : The same subtitle format used on BDs/HD-DVDs
    Язык : French
    Default : Нет
    Forced : Нет

    Текст #4
    Идентификатор : 8
    Формат : PGS
    Режим смешивания : zlib
    Идентификатор кодека : S_HDMV/PGS
    Идентификатор кодека/Информация : The same subtitle format used on BDs/HD-DVDs
    Язык : Spanish
    Default : Нет
    Forced : Нет

    Текст #5
    Идентификатор : 9
    Формат : PGS
    Режим смешивания : zlib
    Идентификатор кодека : S_HDMV/PGS
    Идентификатор кодека/Информация : The same subtitle format used on BDs/HD-DVDs
    Язык : Portuguese
    Default : Нет
    Forced : Нет

    Меню
    00:00:00.000 : en:00:00:00.000
    00:09:09.132 : en:00:09:09.132
    00:18:35.823 : en:00:18:35.823
    00:23:04.341 : en:00:23:04.341
    00:33:00.395 : en:00:33:00.395
    00:42:44.896 : en:00:42:44.896
    00:50:01.665 : en:00:50:01.665
    01:01:09.666 : en:01:01:09.666
    01:14:45.106 : en:01:14:45.106
    01:22:21.311 : en:01:22:21.311
    01:32:09.941 : en:01:32:09.941
    01:41:55.609 : en:01:41:55.609
    01:51:37.858 : en:01:51:37.858
    01:59:21.029 : en:01:59:21.029
    02:02:17.830 : en:02:02:17.830

    Скриншоты

    Размер: 14.24 GB (15290997815 Bytes)

    Тихоокеанский рубеж / Pacific Rim (2013) BDRip 1080p | D скачать через торрент бесплатно
    загрузка...
    Рейтинг →
     (голосов: 1, оценка 3/5, голосовать можно 1 раз )

    Другие торренты по теме:

  • Тихоокеанский рубеж / Pacific Rim (2013) HDRip 1080p | Трейлер
  • Ramin Djawadi - Тихоокеанский рубеж / Pacific Rim (2013) MP3
  • Тихоокеанский рубеж / Pacific Rim (2013) TS*PROPER*
  • Тихоокеанский рубеж / Pacific Rim (2013) WEB-DLRip 1080p | Звук с TS
  • Тихоокеанский рубеж / Pacific Rim (2013) WEB-DL 720p | Звук с TS
  • Тихоокеанский рубеж / Pacific Rim (2013) WEB-DLRip | Звук с TS
  • Тихоокеанский рубеж / Pacific Rim (2013) BDRip от Youtracker скачать через торрент бесплатно
  • Тихоокеанский рубеж / Pacific Rim (2013) HDRip от Scarabey | D скачать через торрент бесплатно


    • Комментарии (0):

      Информация

      Информация

        Посетители, находящиеся в группе Гости, не могут оставлять комментарии в данной новости.

        ↓ Меню



        ↓ Опрос

        А Вы добавили сайт в закладки?
        Да
        Не


        Top 10 за месяц (Фильмы)