.
Авторизация | Регистрация
Хочешь лучшие торренты? Добавь свой email!
Добавить
» » Мастер тай-чи / Мастер тай-цзи / Man of Tai Chi (2013) WEB-DLRip от BitTracker скачать через торрент бесплатно




    Мастер тай-чи / Мастер тай-цзи / Man of Tai Chi (2013) WEB-DLRip от BitTracker скачать через торрент бесплатно

    Опубликовал: Админ | Дата: 27-02-2015, 11:09 | Просмотров: 411



    Информация о фильме
    Название: Мастер тай-чи / Мастер тай-цзи
    Оригинальное название: Man of Tai Chi
    Год выхода: 2013
    Жанр: боевик
    Режиссер: Киану Ривз / Keanu Reeve
    В ролях: Киану Ривз, Ико Ювайс, Тайгер Ху Чен, Карен Мок, Джереми Меринас, Стивен Дасс, Майкл Чан, Брахим Ачаббаке, Хелен Леклерк, Оушен Хоу и др..

    О фильме:
    Пекин. Амбициозный юноша Чэнь Линь-Ху по кличке Тигр подрабатывает скромным курьером, но после работы он превращается в молодую звезду боевых искусств, постепенно оттачивая свои навыки, следуя традициям Тайцзи Лин Кун. Обучившись размеренным и мирным движениям из Тайцзи, он приспособил их для бойцовских соревнований. Донака Марк, скрываясь от гонконгской полиции, попадает в другой столичный мегаполис, где царит неразбериха и хаос, и открывает там подпольный бойцовский клуб, в котором реальные деньги можно заработать, побеждая противников в поединках без правил, транслируемых в прямом эфире богатым клиентам. Подыскивая новую звезду, Донака пытается приманить Тигра обещанием лёгкого заработка. Вхождение в этот мир выявляет самую тёмную сторону Чэнь Линь-Ху, но ему необходимы наличные. Его навыки помогают ему на ринге, но сможет ли он, сражаясь, сохранить в себе чистоту и добропорядочность?




    Страна: Китай
    Продолжительность: 01:45:15
    Перевод: Профессиональное (многоголосое) Baibako

    Файл
    Кодек: XviD
    Качество: WEB-DLRip Исх. WEB-DLRip 1080р
    Видео: 656x272 (2.41:1), 23.976 fps, XviD build 50 ~853 kbps avg, 0.20 bit/pixel
    Звук: 48 kHz, MPEG Layer 3, 2 ch, ~128.00 kbps avg
    Субтитры: английские (на китайскую речь)

    Семпл

    MediaInfo

    Общее
    Полное имя : S:ФильмыМастер тай-цзи. 2013. WEB-DLRip (AleksSin).avi
    Формат : AVI
    Формат/Информация : Audio Video Interleave
    Размер файла : 745 Мбайт
    Продолжительность : 1 ч. 45 м.
    Общий поток : 990 Кбит/сек
    Программа кодирования : VirtualDubMod 1.5.10.3 | www.virtualdub-fr.org || (build 2550/release)
    Библиотека кодирования : VirtualDubMod build 2550/release

    Видео
    Идентификатор : 0
    Формат : MPEG-4 Visual
    Профиль формата : Advanced Simple@L5
    Параметр BVOP формата : 2
    Параметр QPel формата : Нет
    Параметр GMC формата : Без точки перехода
    Параметр матрицы формата : Default (H.263)
    Идентификатор кодека : XVID
    Идентификатор кодека/Подсказка : XviD
    Продолжительность : 1 ч. 45 м.
    Битрейт : 853 Кбит/сек
    Ширина : 656 пикс.
    Высота : 272 пикс.
    Соотношение сторон : 2,40:1
    Частота кадров : 23,976 кадр/сек
    Цветовое пространство : YUV
    Подвыборка цветности : 4:2:0
    Битовая глубина : 8 бит
    Тип развёртки : Прогрессивная
    Метод сжатия : С потерями
    Бит/(Пиксели*Кадры) : 0.199
    Размер потока : 642 Мбайт (86%)
    Библиотека кодирования : XviD 1.2.1 (UTC 2008-12-04)

    Аудио
    Идентификатор : 1
    Формат : MPEG Audio
    Версия формата : Version 1
    Профиль формата : Layer 3
    Идентификатор кодека : 55
    Идентификатор кодека/Подсказка : MP3
    Продолжительность : 1 ч. 45 м.
    Вид битрейта : Постоянный
    Битрейт : 128 Кбит/сек
    Каналы : 2 канала
    Частота : 48,0 КГц
    Метод сжатия : С потерями
    Размер потока : 96,4 Мбайт (13%)
    Выравнивание : Соединение по промежуткам
    Продолжительность промежутка : 42 мс. (1,00 видеокадр)
    Время предзагрузки промежутка : 504 ms
    Библиотека кодирования : LAME3.99r
    Залил: AleksSin
    Размер: 745.39 MB (781596672 Bytes)


    Мастер тай-чи / Мастер тай-цзи / Man of Tai Chi (2013) WEB-DLRip от BitTracker скачать через торрент бесплатно
    загрузка...
    Рейтинг →
     (голосов: 1, оценка 3/5, голосовать можно 1 раз )

    Другие торренты по теме:

  • Мастер тай-чи / Мастер тай-цзи / Man of Tai Chi (2013) DVDScr от BTT-TEAM
  • Мастер тай-чи / Мастер тай-цзи / Man of Tai Chi (2013) WEB-DLRip | L1 скачать через торрент бесплатно
  • Мастер тай-чи / Мастер тай-цзи / Man of Tai Chi (2013) WEB-DL 720p от MULTIBITS | P, L скачать через торрент бесплатно
  • Мастер тай-чи / Мастер тай-цзи / Man of Tai Chi (2013) HDRip от Scarabey
  • Мастер тай-чи / Мастер тай-цзи / Man of Tai Chi (2013) HDRip от Scarabey | D | iTunes


    • Комментарии (0):

      Информация

      Информация

        Посетители, находящиеся в группе Гости, не могут оставлять комментарии в данной новости.

        ↓ Меню



        ↓ Опрос

        А Вы добавили сайт в закладки?
        Да
        Не


        Top 10 за месяц (Фильмы)