.
Авторизация | Регистрация
Хочешь лучшие торренты? Добавь свой email!
Добавить
» » Стильная штучка / Sweet Home Alabama (2002) BDRip-AVC от 0ptimus | D, P2, A скачать торрент бесплатно




    Стильная штучка / Sweet Home Alabama (2002) BDRip-AVC от 0ptimus | D, P2, A скачать торрент бесплатно

    Опубликовал: Админ | Дата: 27-02-2015, 11:09 | Просмотров: 245



    Информация о фильме
    Название: Стильная штучка
    Оригинальное название: Sweet Home Alabama
    Год выхода: 2002
    Жанр: Комедия, мелодрама
    Режиссер: Энди Теннант
    В ролях: Риз Уизерспун, Джош Лукас, Патрик Демпси, Кэндис Берген, Мэри Кэй Плэйс, Фред Уорд, Джин Смарт, Итэн Эмбри, Мелани Лински, Кортни Гейнс, Мэри Линн Райскаб, Рона Митра, Натан Ли Грэхэм, Шон Бриджерс, Флит Купер, Кевин Суссман, Томас Кертис, Дакота Фэннинг, Марк Скиннер, Мишель Крусик, Фил Катер, Майкл Сноу, Боб Пенни

    О фильме:
    В этой романтичной комедии нью-йоркский дизайнер мод Мелани Кармайкл внезапно оказывается очарована самым знатным холостяком города. Но прошлое Мелани хранит много тайн, включая Джейка, мужа, за которого она вышла замуж в средней школе и который отказывается разводиться с ней.Решив закончить их спорные отношения раз и навсегда, Мелани тайком возвращается домой в штат Алабама, но там она обнаруживает, что можно забрать девушку с Юга, но никогда нельзя забрать Юг из девушки...



    Страна: США
    Студия: Touchstone Pictures, Original Film, DD Films, Pigeon Creek Films
    Продолжительность: 01:49:05
    Перевод: Дублированный, профессиональный (двухголосый закадровый), авторский (одноголосый закадровый)

    Файл
    Кодек: h264
    Качество: BDRip-AVC
    Видео: 2345 Кбит/с, 1024x436, 23.976 кадр/с

    Звук:
    • №1: Русский (AC3, 6 ch, 384 Кбит/с) Дублированный
    • №2: Английский (AC3, 6 ch, 384 Кбит/с)
    Отдельно:
    • №3: Русский (AC3, 6 ch, 384 Кбит/с) Профессиональный двухголосый DDV
    • №4: Русский (AC3, 6 ch, 384 Кбит/с) Авторский одноголосый Евгений Рудой
    • №5: Русский (AC3, 6 ch, 384 Кбит/с) Авторский одноголосый Владимир Королев

    Субтитры: Русские (R5, Варус), английские

    MediaInfo

    ---------------------------------------------------------------------------
    x264 info: frame I:1456 Avg QP:19.00 size: 68353
    x264 info: frame P:30905 Avg QP:21.42 size: 24100
    x264 info: frame B:124149 Avg QP:23.41 size: 8596
    ---------------------------------------------------------------------------

    Полное имя : Stilnaja.shtuchka.2002.x264.BDRip.(AVC).0ptimus.mkv
    Формат : Matroska
    Версия формата : Version 4 / Version 2
    Размер файла : 2,37 Гбайт
    Продолжительность : 1 ч. 49 м.
    Общий поток : 3107 Кбит/сек
    Название фильма : Стильная штучка | Sweet Home Alabama 2002 -=BDRip (AVC) by 0ptimus=-
    Дата кодирования : UTC 2013-08-30 10:56:42
    Программа кодирования : mkvmerge v6.1.0 (;Old Devil;) built on Mar 2 2013 14:32:37
    Библиотека кодирования : libebml v1.3.0 libmatroska v1.4.0

    Видео
    Идентификатор : 1
    Формат : AVC
    Формат/Информация : Advanced Video Codec
    Профиль формата : High@L4.1
    Параметр CABAC формата : Да
    Параметр ReFrames формата : 9 кадров
    Идентификатор кодека : V_MPEG4/ISO/AVC
    Продолжительность : 1 ч. 49 м.
    Битрейт : 2345 Кбит/сек
    Ширина : 1024 пикселя
    Высота : 436 пикселей
    Соотношение сторон : 2,35:1
    Частота кадров : 23,976 кадра/сек
    Цветовое пространство : YUV
    Субдискретизация насыщенности : 4:2:0
    Битовая глубина : 8 бит
    Тип развёртки : Прогрессивная
    Бит/(Пиксели*Кадры) : 0.219
    Размер потока : 1,73 Гбайт (73%)
    Заголовок : Rip by 0ptimus
    Библиотека кодирования : x264 core 119 r2106 07efeb4
    Настройки программы : cabac=1 / ref=9 / deblock=1:-2:-1 / analyse=0x3:0x113 / me=umh / subme=11 / psy=1 / psy_rd=1.00:0.20 / mixed_ref=1 / me_range=48 / chroma_me=1 / trellis=2 / 8x8dct=1 / cqm=0 / deadzone=21,11 / fast_pskip=0 / chroma_qp_offset=-3 / threads=4 / sliced_threads=0 / nr=0 / decimate=1 / interlaced=0 / bluray_compat=0 / constrained_intra=0 / bframes=7 / b_pyramid=2 / b_adapt=2 / b_bias=0 / direct=3 / weightb=1 / open_gop=0 / weightp=2 / keyint=250 / keyint_min=23 / scenecut=40 / intra_refresh=0 / rc=2pass / mbtree=0 / bitrate=2345 / ratetol=1.0 / qcomp=0.60 / qpmin=0 / qpmax=69 / qpstep=4 / cplxblur=20.0 / qblur=0.5 / ip_ratio=1.40 / pb_ratio=1.30 / aq=1:1.00
    Язык : English

    Аудио #1
    Идентификатор : 2
    Формат : AC-3
    Формат/Информация : Audio Coding 3
    Расширение режима : CM (complete main)
    Идентификатор кодека : A_AC3
    Продолжительность : 1 ч. 49 м.
    Вид битрейта : Постоянный
    Битрейт : 384 Кбит/сек
    Каналы : 6 каналов
    Расположение каналов : Front: L C R, Side: L R, LFE
    Частота : 48,0 КГц
    Битовая глубина : 16 бит
    Метод сжатия : С потерями
    Размер потока : 300 Мбайт (12%)
    Заголовок : Дублированный AC3 5.1 @ 384 kbps
    Язык : Russian

    Аудио #2
    Идентификатор : 3
    Формат : AC-3
    Формат/Информация : Audio Coding 3
    Расширение режима : CM (complete main)
    Идентификатор кодека : A_AC3
    Продолжительность : 1 ч. 49 м.
    Вид битрейта : Постоянный
    Битрейт : 384 Кбит/сек
    Каналы : 6 каналов
    Расположение каналов : Front: L C R, Side: L R, LFE
    Частота : 48,0 КГц
    Битовая глубина : 16 бит
    Метод сжатия : С потерями
    Размер потока : 300 Мбайт (12%)
    Заголовок : AC3 5.1 @ 384 kbps
    Язык : English

    Текст #1
    Идентификатор : 4
    Формат : UTF-8
    Идентификатор кодека : S_TEXT/UTF8
    Идентификатор кодека/Информация : UTF-8 Plain Text
    Заголовок : R5
    Язык : Russian

    Текст #2
    Идентификатор : 5
    Формат : UTF-8
    Идентификатор кодека : S_TEXT/UTF8
    Идентификатор кодека/Информация : UTF-8 Plain Text
    Заголовок : Варус
    Язык : Russian

    Текст #3
    Идентификатор : 6
    Формат : UTF-8
    Идентификатор кодека : S_TEXT/UTF8
    Идентификатор кодека/Информация : UTF-8 Plain Text
    Язык : English

    Меню
    00:00:00.000 : :Opening Credits/Lightning Strikes
    00:08:04.482 : :The Proposal
    00:23:22.484 : :The Smooters
    00:33:39.350 : :Redecorating the House
    00:45:39.111 : :Carried Home
    00:53:48.808 : :Touring the Carmichael Plantation
    01:00:17.655 : :Street Fair
    01:09:30.916 : :Saying Goodbye
    01:18:33.332 : :Planning a Southern Wedding
    01:28:39.689 : :The Wedding
    01:38:08.966 : :The Right Groom
    01:43:07.014 : :End Credits
    01:48:47.604 : :End
    Скриншоты




    Релиз от:
    Размер: 3.25 GB (3484328273 Bytes)

    Стильная штучка / Sweet Home Alabama (2002) BDRip-AVC от 0ptimus | D, P2, A торрент скачать бесплатно
    загрузка...
    Рейтинг →
     (голосов: 1, оценка 3/5, голосовать можно 1 раз )

    Другие торренты по теме:

  • Стильная штучка / Sweet Home Alabama (2002) BDRip 720p | Лицензия
  • Стильная штучка / Sweet Home Alabama (2002) BDRip 720p | D, P, A


    • Комментарии (0):

      Информация

      Информация

        Посетители, находящиеся в группе Гости, не могут оставлять комментарии в данной новости.

        ↓ Меню



        ↓ Опрос

        А Вы добавили сайт в закладки?
        Да
        Не


        Top 10 за месяц (Фильмы)