.
Авторизация | Регистрация
Хочешь лучшие торренты? Добавь свой email!
Добавить
» » Робокоп / Робот-полицейский / RoboCop (1987) BDRip-AVC от 0ptimus | P, P2, A скачать торрент бесплатно




    Робокоп / Робот-полицейский / RoboCop (1987) BDRip-AVC от 0ptimus | P, P2, A скачать торрент бесплатно

    Опубликовал: Админ | Дата: 27-02-2015, 11:09 | Просмотров: 418



    Информация о фильме
    Название: Робокоп / Робот-полицейский
    Оригинальное название: RoboCop
    Год выхода: 1987
    Жанр: Фантастика, боевик, триллер, драма, криминал
    Режиссер: Пол Верховен
    В ролях: Питер Уэллер, Нэнси Аллен, Дэн О`Херлихи, Ронни Кокс, Кертвуд Смит, Мигель Феррер, Роберт Дукуй, Рэй Уайз, Фелтон Перри, Пол МакКрейн, Джон Дейвис, Тайриз Аллен, Иоланда Уильямс, Кевин Пейдж, Чарльз Кэррол, Джин Воланд, Нил Саммерс, Фредди Хайс, Майкл Грегори, Эдвард Эдвардс, Марк Карлтон, Ли Де Бру, Рик Либерман, Кэлвин Джанг, Дел Замора, Джесси Д. Гойнс, Дэррил Кокс, Карен Рэдклифф, Сэйдж Паркер, Лэйрд Стюарт, Джерри Хэйнс, Уильям Шокли, Донна Кигэн

    О фильме:
    После гибели одного из лучших полицейских врачи-экспериментаторы создают из него неуязвимого киборга Робокопа, который в одиночку борется с бандой преступников. Однако прочная броня не спасает Робокопа от мучительных, обрывочных воспоминаний о прошлом: он постоянно видит кошмарные сны, в которых погибает от руки жестоких преступников. Теперь он ждет не только правосудия… но и жаждет мести!



    Страна: США
    Студия: Orion Pictures Corporation
    Продолжительность: 01:42:47
    Перевод: Профессиональный (многоголосый закадровый), профессиональный (двухголосый закадровый), авторский (одноголосый закадровый)

    Файл
    Кодек: h264
    Качество: BDRip-AVC
    Видео: 2658 Кбит/с, 1024x556, 23.976 кадр/с

    Звук:
    • №1: Русский (АС3, 6 ch, 384 Кбит/с) Профессиональный (многоголосый закадровый) Лицензия
    • №2: Русский (АС3, 6 ch, 384 Кбит/с) Профессиональный (двухголосый закадровый) Киномания
    • №3: Русский (АС3, 6 ch, 384 Кбит/с) Авторский (одноголосый закадровый) Андрей Гаврилов
    • №4: Английский (АС3, 6 ch, 384 Кбит/с)
    Отдельно:
    • №5: Русский (АС3, 6 ch, 384 Кбит/с) Профессиональный (многоголосый закадровый) Superbit
    • №6: Русский (АС3, 2 ch, 384 Кбит/с) Профессиональный (многоголосый закадровый) НТВ
    • №7: Русский (АС3, 2 ch, 192 Кбит/с) Профессиональный (многоголосый закадровый) СТС
    • №8: Русский (АС3, 6 ch, 384 Кбит/с) Авторский (одноголосый закадровый) Юрий Живов
    • №9: Русский (АС3, 6 ch, 384 Кбит/с) Авторский (одноголосый закадровый) Василий Горчаков
    • №10: Русский (АС3, 6 ch, 384 Кбит/с) Авторский (одноголосый закадровый) Сергей Визгунов
    • №11: Русский (АС3, 2 ch, 192 Кбит/с) Авторский (одноголосый закадровый) Вартан Дохалов
    • №12: Русский (АС3, 6 ch, 384 Кбит/с) Авторский (одноголосый закадровый) Григорий Либергал
    • №13: Русский (АС3, 6 ch, 384 Кбит/с) Авторский (одноголосый закадровый) Пётр Карцев
    • №14: Русский (АС3, 6 ch, 384 Кбит/с) Авторский (одноголосый закадровый) Алексей Попов
    • №15: Русский (АС3, 6 ch, 384 Кбит/с) Авторский (одноголосый закадровый) Константин Поздняков

    Субтитры: Русские (лицензия), русские (Поздняков, ненормативная лексика), английские

    MediaInfo

    ---------------------------------------------------------------------------
    x264 info: frame I:1193 Avg QP:17.17 size: 91620
    x264 info: frame P:36916 Avg QP:20.53 size: 28899
    x264 info: frame B:109745 Avg QP:22.72 size: 7946
    ---------------------------------------------------------------------------

    Полное имя : RoboCop.1987.x264.BDRip.(AVC).0ptimusRoboCop.1987.x264.BDRip.(AVC).0ptimus.mkv
    Формат : Matroska
    Версия формата : Version 4 / Version 2
    Размер файла : 3,01 Гбайт
    Продолжительность : 1 ч. 42 м.
    Общий поток : 4196 Кбит/сек
    Название фильма : Робокоп (Робот-полицейский) | RoboCop 1987 -=BDRip (AVC) by 0ptimus=-
    Дата кодирования : UTC 2013-09-30 14:25:26
    Программа кодирования : mkvmerge v6.1.0 (;Old Devil;) built on Mar 2 2013 14:32:37
    Библиотека кодирования : libebml v1.3.0 libmatroska v1.4.0

    Видео
    Идентификатор : 1
    Формат : AVC
    Формат/Информация : Advanced Video Codec
    Профиль формата : High@L4.1
    Параметр CABAC формата : Да
    Параметр ReFrames формата : 9 кадров
    Идентификатор кодека : V_MPEG4/ISO/AVC
    Продолжительность : 1 ч. 42 м.
    Битрейт : 2658 Кбит/сек
    Ширина : 1024 пикселя
    Высота : 556 пикселей
    Соотношение сторон : 16:9
    Частота кадров : 23,976 кадра/сек
    Цветовое пространство : YUV
    Субдискретизация насыщенности : 4:2:0
    Битовая глубина : 8 бит
    Тип развёртки : Прогрессивная
    Бит/(Пиксели*Кадры) : 0.195
    Размер потока : 1,85 Гбайт (61%)
    Заголовок : Rip by 0ptimus
    Библиотека кодирования : x264 core 133 r2334 a3ac64b
    Настройки программы : cabac=1 / ref=9 / deblock=1:-3:-3 / analyse=0x3:0x113 / me=umh / subme=11 / psy=1 / psy_rd=1.00:0.20 / mixed_ref=1 / me_range=32 / chroma_me=1 / trellis=2 / 8x8dct=1 / cqm=0 / deadzone=21,11 / fast_pskip=0 / chroma_qp_offset=-3 / threads=4 / lookahead_threads=1 / sliced_threads=0 / nr=0 / decimate=0 / interlaced=0 / bluray_compat=0 / constrained_intra=0 / bframes=10 / b_pyramid=2 / b_adapt=2 / b_bias=0 / direct=3 / weightb=1 / open_gop=0 / weightp=2 / keyint=240 / keyint_min=23 / scenecut=40 / intra_refresh=0 / rc_lookahead=40 / rc=2pass / mbtree=0 / bitrate=2658 / ratetol=1.0 / qcomp=0.60 / qpmin=0 / qpmax=69 / qpstep=4 / cplxblur=20.0 / qblur=0.5 / vbv_maxrate=50000 / vbv_bufsize=50000 / nal_hrd=none / ip_ratio=1.40 / pb_ratio=1.30 / aq=1:1.00
    Язык : English

    Аудио #1
    Идентификатор : 2
    Формат : AC-3
    Формат/Информация : Audio Coding 3
    Расширение режима : CM (complete main)
    Идентификатор кодека : A_AC3
    Продолжительность : 1 ч. 42 м.
    Вид битрейта : Постоянный
    Битрейт : 384 Кбит/сек
    Каналы : 6 каналов
    Расположение каналов : Front: L C R, Side: L R, LFE
    Частота : 48,0 КГц
    Битовая глубина : 16 бит
    Метод сжатия : С потерями
    Размер потока : 282 Мбайт (9%)
    Заголовок : Многоголосый Лицензия AC3 5.1 @ 384 kbps
    Язык : Russian

    Аудио #2
    Идентификатор : 3
    Формат : AC-3
    Формат/Информация : Audio Coding 3
    Расширение режима : CM (complete main)
    Идентификатор кодека : A_AC3
    Продолжительность : 1 ч. 42 м.
    Вид битрейта : Постоянный
    Битрейт : 384 Кбит/сек
    Каналы : 6 каналов
    Расположение каналов : Front: L C R, Side: L R, LFE
    Частота : 48,0 КГц
    Битовая глубина : 16 бит
    Метод сжатия : С потерями
    Размер потока : 282 Мбайт (9%)
    Заголовок : Двухголосый Киномания AC3 5.1 @ 384 kbps
    Язык : Russian

    Аудио #3
    Идентификатор : 4
    Формат : AC-3
    Формат/Информация : Audio Coding 3
    Расширение режима : CM (complete main)
    Идентификатор кодека : A_AC3
    Продолжительность : 1 ч. 42 м.
    Вид битрейта : Постоянный
    Битрейт : 384 Кбит/сек
    Каналы : 6 каналов
    Расположение каналов : Front: L C R, Side: L R, LFE
    Частота : 48,0 КГц
    Битовая глубина : 16 бит
    Метод сжатия : С потерями
    Размер потока : 282 Мбайт (9%)
    Заголовок : Авторский Андрей Гаврилов AC3 5.1 @ 384 kbps
    Язык : Russian

    Аудио #4
    Идентификатор : 5
    Формат : AC-3
    Формат/Информация : Audio Coding 3
    Расширение режима : CM (complete main)
    Идентификатор кодека : A_AC3
    Продолжительность : 1 ч. 42 м.
    Вид битрейта : Постоянный
    Битрейт : 384 Кбит/сек
    Каналы : 6 каналов
    Расположение каналов : Front: L C R, Side: L R, LFE
    Частота : 48,0 КГц
    Битовая глубина : 16 бит
    Метод сжатия : С потерями
    Размер потока : 282 Мбайт (9%)
    Заголовок : AC3 5.1 @ 384 kbps
    Язык : English

    Текст #1
    Идентификатор : 6
    Формат : UTF-8
    Идентификатор кодека : S_TEXT/UTF8
    Идентификатор кодека/Информация : UTF-8 Plain Text
    Заголовок : Перевод с Лицензии
    Язык : Russian

    Текст #2
    Идентификатор : 7
    Формат : UTF-8
    Идентификатор кодека : S_TEXT/UTF8
    Идентификатор кодека/Информация : UTF-8 Plain Text
    Заголовок : Перевод К. Позднякова (ненормативная лексика)
    Язык : Russian

    Текст #3
    Идентификатор : 8
    Формат : UTF-8
    Идентификатор кодека : S_TEXT/UTF8
    Идентификатор кодека/Информация : UTF-8 Plain Text
    Язык : English

    Меню
    00:00:00.000 : Main Title/New Guy
    00:06:40.691 : Ed 209
    00:14:03.133 : Hot Pursuit
    00:17:28.130 : Mutilation of Murphy
    00:26:36.177 : New Kinda Cop
    00:34:23.561 : On the Streets
    00:40:28.342 : Ocp Showdown
    00:45:10.833 : Bad Memories
    00:49:42.145 : Self-Discovery
    00:57:43.626 : Blast From the Past
    01:01:36.734 : Killer Caught
    01:08:20.679 : Battle Bots
    01:15:55.384 : Un-Masked
    01:22:42.040 : Once and for All
    01:33:49.373 : Fired
    01:37:00.314 : End Credits
    01:43:14.354 : End
    Скриншоты






    Релиз от:
    Размер: 5.49 GB (5897501970 Bytes)

    Робокоп / Робот-полицейский / RoboCop (1987) BDRip-AVC от 0ptimus | P, P2, A торрент скачать бесплатно
    загрузка...
    Рейтинг →
     (голосов: 1, оценка 5/5, голосовать можно 1 раз )

    Другие торренты по теме:

  • Робокоп: Важнейшие директивы / Робокоп возвращается / RoboCop: Prime Directives (2000) DVDRip-AVC от DrVampir | P
  • Робокоп / Робот-полицейский / RoboCop (1987) Blu-Ray
  • Робот-полицейский / Робокоп / RoboCop (1987) BDRip от Youtracker
  • Робокоп / RoboCop (2014) HDRip 720p | L1 | Трейлер
  • Робокоп: Трилогия / RoboCop: Trilogy (1987-1993) BDRip 1080p
  • Робокоп (2014) скачать через торрент бесплатно
  • РобоКоп / RoboCop (2014) Android скачать через торрент бесплатно
  • Робокоп / RoboCop (1987) BDRip от New-Team | Remastered Directors Cut скачать через торрент бесплатно


    • Комментарии (0):

      Информация

      Информация

        Посетители, находящиеся в группе Гости, не могут оставлять комментарии в данной новости.

        ↓ Меню



        ↓ Опрос

        А Вы добавили сайт в закладки?
        Да
        Не


        Top 10 за месяц (Фильмы)