.
Авторизация | Регистрация
Хочешь лучшие торренты? Добавь свой email!
Добавить
» » Восток / The East (2013) BDRip 720p от MULTIBITS | Лицензия скачать торрент бесплатно




    Восток / The East (2013) BDRip 720p от MULTIBITS | Лицензия скачать торрент бесплатно

    Опубликовал: Админ | Дата: 27-02-2015, 11:09 | Просмотров: 318



    Информация о фильме
    Название: Восток
    Оригинальное название: The East
    Год выхода: 2013
    Жанр: триллер, драма, криминал
    Режиссер: Зал Батманглидж
    В ролях: Брит Марлинг, Александр Скарсгард, Эллен Пейдж, Тоби Кеббелл, Шайло Фернандес, Элдис Ходж, Даниэль МакДональд, Хиллари Бак, Патришия Кларксон, Джейсон Риттер

    О фильме:
    Восток — название группировки экологических террористов, пытающейся отомстить аморальным корпорациям. Представительница спецслужб должна проникнуть в группировку.



    Выпущено: США, Великобритания / Scott Free Productions
    Продолжительность: 01:56:07
    Озвучивание: Профессиональное (многоголосое) Лицензия

    Файл
    Формат: MKV (x264)
    Качество: BDRip 720p
    Видео: 4799 Кбит/с, 1280x544
    Звук: AC3, 384 Кбит/с (6 ch)
    Субтитры: Русские
    Дополнительно: Сохранены оригинальные чаптеры как на Blu-ray.

    Семпл



    MI
    Format : Matroska
    Format version : Version 4 / Version 2
    File size : 4.29 GiB
    Duration : 1h 56mn
    Overall bit rate : 5 288 Kbps
    Encoded date : UTC 2013-10-02 18:13:21
    Writing application : mkvmerge v6.4.1 (;Omega Point;) built on Sep 16 2013 22:05:10
    Writing library : libebml v1.3.0 libmatroska v1.4.1

    Video
    ID : 1
    Format : AVC
    Format/Info : Advanced Video Codec
    Format profile : High@L4.1
    Format settings, CABAC : Yes
    Format settings, ReFrames : 12 frames
    Codec ID : V_MPEG4/ISO/AVC
    Duration : 1h 56mn
    Bit rate : 4 799 Kbps
    Width : 1 280 pixels
    Height : 544 pixels
    Display aspect ratio : 2.35:1
    Frame rate mode : Constant
    Frame rate : 23.976 fps
    Color space : YUV
    Chroma subsampling : 4:2:0
    Bit depth : 8 bits
    Scan type : Progressive
    Bits/(Pixel*Frame) : 0.287
    Stream size : 3.89 GiB (91%)
    Writing library : x264 core 138 r2358 9e941d1
    Encoding settings : cabac=1 / ref=12 / deblock=1:-3:-3 / analyse=0x3:0x113 / me=umh / subme=11 / psy=1 / psy_rd=1.00:0.00 / mixed_ref=1 / me_range=32 / chroma_me=1 / trellis=2 / 8x8dct=1 / cqm=0 / deadzone=21,11 / fast_pskip=0 / chroma_qp_offset=-2 / threads=12 / lookahead_threads=2 / sliced_threads=0 / nr=0 / decimate=0 / interlaced=0 / bluray_compat=0 / constrained_intra=0 / bframes=8 / b_pyramid=2 / b_adapt=2 / b_bias=0 / direct=3 / weightb=1 / open_gop=0 / weightp=2 / keyint=250 / keyint_min=24 / scenecut=40 / intra_refresh=0 / rc_lookahead=40 / rc=crf / mbtree=0 / crf=17.8 / qcomp=0.65 / qpmin=0 / qpmax=69 / qpstep=4 / vbv_maxrate=38000 / vbv_bufsize=30000 / crf_max=0.0 / nal_hrd=none / ip_ratio=1.40 / pb_ratio=1.30 / aq=1:1.10
    Language : English
    Default : Yes
    Forced : No

    Audio
    ID : 2
    Format : AC-3
    Format/Info : Audio Coding 3
    Mode extension : CM (complete main)
    Format settings, Endianness : Big
    Codec ID : A_AC3
    Duration : 1h 56mn
    Bit rate mode : Constant
    Bit rate : 384 Kbps
    Channel count : 6 channels
    Channel positions : Front: L C R, Side: L R, LFE
    Sampling rate : 48.0 KHz
    Bit depth : 16 bits
    Compression mode : Lossy
    Stream size : 319 MiB (7%)
    Title : MVO
    Language : Russian
    Default : Yes
    Forced : Yes

    Text
    ID : 3
    Format : UTF-8
    Codec ID : S_TEXT/UTF8
    Codec ID/Info : UTF-8 Plain Text
    Language : Russian
    Default : No
    Forced : No

    Menu
    00:00:00.000 : en:00:00:00.000
    00:02:10.088 : en:00:02:10.088
    00:06:41.568 : en:00:06:41.568
    00:09:34.365 : en:00:09:34.365
    00:12:00.553 : en:00:12:00.553
    00:14:17.315 : en:00:14:17.315
    00:18:11.924 : en:00:18:11.924
    00:22:01.737 : en:00:22:01.737
    00:26:29.254 : en:00:26:29.254
    00:28:41.845 : en:00:28:41.845
    00:31:14.873 : en:00:31:14.873
    00:35:06.479 : en:00:35:06.479
    00:39:20.358 : en:00:39:20.358
    00:45:40.112 : en:00:45:40.112
    00:47:18.753 : en:00:47:18.753
    00:50:39.286 : en:00:50:39.286
    00:52:36.904 : en:00:52:36.904
    00:56:18.458 : en:00:56:18.458
    01:00:59.698 : en:01:00:59.698
    01:05:50.947 : en:01:05:50.947
    01:10:32.603 : en:01:10:32.603
    01:12:03.236 : en:01:12:03.236
    01:14:40.267 : en:01:14:40.267
    01:19:24.218 : en:01:19:24.218
    01:23:11.862 : en:01:23:11.862
    01:27:02.467 : en:01:27:02.467
    01:29:36.580 : en:01:29:36.580
    01:32:01.391 : en:01:32:01.391
    01:35:03.698 : en:01:35:03.698
    01:38:10.885 : en:01:38:10.885
    01:40:42.745 : en:01:40:42.745
    01:43:14.772 : en:01:43:14.772
    01:45:04.590 : en:01:45:04.590
    01:48:00.974 : en:01:48:00.974
    01:49:59.718 : en:01:49:59.718
    01:51:27.222 : en:01:51:27.222
    Скриншоты


    Релиз от:
    Размер: 4.29 GB (4606072089 Bytes)

    Восток / The East (2013) BDRip 720p от MULTIBITS | Лицензия торрент скачать бесплатно
    загрузка...
    Рейтинг →
     (голосов: 1, оценка 4/5, голосовать можно 1 раз )

    Другие торренты по теме:

  • Восток есть восток / East Is East (1999) BDRip 720p скачать через торрент бесплатно
  • Восток есть восток / East Is East (1999) BDRip 720p
  • Восток есть восток / East Is East (1999) HDRip от Portablius | P
  • Поезд идёт на восток (1947) DVDRip
  • Восток / The East (2013) BDRip 720p | L2
  • Восток / The East (2013) HDRip | L2
  • Восток / The East (2013) BDRip-AVC от HELLYWOOD | L2
  • Восток / The East (2013) BDRip 1080p | L2


    • Комментарии (0):

      Информация

      Информация

        Посетители, находящиеся в группе Гости, не могут оставлять комментарии в данной новости.

        ↓ Меню



        ↓ Опрос

        А Вы добавили сайт в закладки?
        Да
        Не


        Top 10 за месяц (Фильмы)