.
Авторизация | Регистрация
Хочешь лучшие торренты? Добавь свой email!
Добавить
» » Одинокий рейнджер / The Lone Ranger (2013) BDRip 720p | D | Лицензия скачать торрент бесплатно




    Одинокий рейнджер / The Lone Ranger (2013) BDRip 720p | D | Лицензия скачать торрент бесплатно

    Опубликовал: Админ | Дата: 27-02-2015, 11:09 | Просмотров: 318



    Информация о фильме
    Название: Одинокий рейнджер
    Оригинальное название: The Lone Ranger
    Год выпуска: 2013
    Жанр: Приключения, фантастика, вестерн, боевик
    Выпущено: США, Blind Wink Productions, Classic Media, Infinitum Nihil Production, Jerry Bruckheimer Films
    Режиссер: Гор Вербински
    В ролях: Джонни Депп, Хелена Бонем Картер, Арми Хаммер, Уильям Фихтнер, Том Уилкинсон, Бэрри Пеппер, Джеймс Бэдж Дэйл, Рут Уилсон, Мэйсон Кук, Мэтт О`Лири

    О фильме: История блюстителя закона Джона Рейда, который с помощью индейца Тонто стал легендарным мстителем в маске, стоящим на защите справедливости. Тонто с юмором и небылицами повествует о тех приключениях, которые пришлось пережить двум непохожим друг на друга героям, сведенным судьбой для того чтобы вместе сражаться против общего врага. Им приходится противостоять жадности и коррупции во времена, когда появление первых железных дорог изменило представление о власти и могуществе в мире.



    Файл
    Качество: BDRip (720p)
    Видео: MPEG-4 AVC, 6000 Кбит/с, 1280x534
    Аудио: Русский (AC3, 6 ch, 640 Кбит/с), английский (DTS, 6 ch, 1510 Кбит/с)
    Размер: 8.52 ГБ
    Продолжительность: 02:29:33
    Перевод: Дублированный лицензия
    Субтитры: http://sendfile.su/875848
    MI
    Общее
    Уникальный идентификатор : 223351654862687530894201048848142129656 (0xA807F6CA33924B4C93CCFCC3ED7B59F8)
    Полное имя : D:New folderLone.Ranger.2013.D.BDRip.720p.mkv
    Формат : Matroska
    Версия формата : Version 2
    Размер файла : 8,52 Гбайт
    Продолжительность : 2 ч. 29 м.
    Общий поток : 8152 Кбит/сек
    Дата кодирования : UTC 2013-10-02 21:16:19
    Программа кодирования : mkvmerge v3.4.0 (;Rapunzel;) built on May 15 2010 09:38:20
    Библиотека кодирования : libebml v0.8.0 libmatroska v0.9.0

    Видео
    Идентификатор : 1
    Формат : AVC
    Формат/Информация : Advanced Video Codec
    Профиль формата : High@L4.1
    Параметр CABAC формата : Да
    Параметр ReFrames формата : 12 кадров
    Идентификатор кодека : V_MPEG4/ISO/AVC
    Продолжительность : 2 ч. 29 м.
    Битрейт : 6000 Кбит/сек
    Ширина : 1280 пикселей
    Высота : 534 пикселя
    Соотношение сторон : 2,40:1
    Режим частоты кадров : Постоянный
    Частота кадров : 23,976 кадра/сек
    Цветовое пространство : YUV
    Субдискретизация насыщенности : 4:2:0
    Битовая глубина : 8 бит
    Тип развёртки : Прогрессивная
    Бит/(Пиксели*Кадры) : 0.366
    Размер потока : 6,10 Гбайт (72%)
    Библиотека кодирования : x264 core 132 r2323 704 51 d571b1c tMod 8-bit@4:2:0 X86_64
    Настройки программы : cabac=1 / ref=12 / deblock=1:-3:-3 / analyse=0x3:0x113 / me=umh / subme=11 / psy=1 / fade_compensate=0.00 / psy_rd=1.05:0.00 / mixed_ref=1 / me_range=32 / chroma_me=1 / trellis=2 / 8x8dct=1 / cqm=0 / deadzone=21,11 / fast_pskip=0 / chroma_qp_offset=-2 / threads=18 / lookahead_threads=2 / sliced_threads=0 / nr=0 / decimate=0 / interlaced=0 / bluray_compat=0 / constrained_intra=0 / fgo=0 / bframes=6 / b_pyramid=2 / b_adapt=2 / b_bias=0 / direct=3 / weightb=1 / open_gop=0 / weightp=2 / keyint=240 / keyint_min=24 / scenecut=40 / intra_refresh=0 / rc_lookahead=240 / rc=2pass / mbtree=1 / bitrate=6000 / ratetol=1.0 / qcomp=0.70 / qpmin=0 / qpmax=69 / qpstep=4 / cplxblur=20.0 / qblur=0.5 / ip_ratio=1.10 / aq=4:0.85 / aq-sensitivity=10.00 / aq-factor=1.00:1.00:1.00 / aq2=0 / aq3=0
    Язык : English
    Default : Да
    Forced : Нет

    Аудио #1
    Идентификатор : 2
    Формат : AC-3
    Формат/Информация : Audio Coding 3
    Расширение режима : CM (complete main)
    Параметр Endianness формата : Big
    Идентификатор кодека : A_AC3
    Продолжительность : 2 ч. 29 м.
    Вид битрейта : Постоянный
    Битрейт : 640 Кбит/сек
    Каналы : 6 каналов
    Расположение каналов : Front: L C R, Side: L R, LFE
    Частота : 48,0 КГц
    Битовая глубина : 16 бит
    Метод сжатия : С потерями
    Размер потока : 685 Мбайт (8%)
    Язык : Russian
    Default : Да
    Forced : Нет

    Аудио #2
    Идентификатор : 3
    Формат : DTS
    Формат/Информация : Digital Theater Systems
    Режим : 16
    Параметр Endianness формата : Big
    Идентификатор кодека : A_DTS
    Продолжительность : 2 ч. 29 м.
    Вид битрейта : Постоянный
    Битрейт : 1509 Кбит/сек
    Каналы : 6 каналов
    Расположение каналов : Front: L C R, Side: L R, LFE
    Частота : 48,0 КГц
    Битовая глубина : 24 бит
    Метод сжатия : С потерями
    Размер потока : 1,58 Гбайт (19%)
    Язык : English
    Default : Нет
    Forced : Нет

    Скриншоты

    Размер: 8.52 GB (9143735849 Bytes)

    Одинокий рейнджер / The Lone Ranger (2013) BDRip 720p | D | Лицензия торрент скачать бесплатно
    загрузка...
    Рейтинг →
     (голосов: 1, оценка 5/5, голосовать можно 1 раз )

    Другие торренты по теме:

  • Одинокий рейнджер / The Lone Ranger (2013) HD-1080p | D | Трейлер
  • Одинокий рейнджер / The Lone Ranger (2013) BDRip-AVC от HELLYWOOD | Лицензия
  • Одинокий рейнджер / The Lone Ranger (2013) BDRip от HQ-ViDEO | Лицензия
  • Одинокий рейнджер / The Lone Ranger (2013) HDRip от Scarabey | D | Лицензия
  • Одинокий рейнджер / The Lone Ranger (2013) HDRip-AVC от ViRTUS | D
  • Одинокий рейнджер / The Lone Ranger (2013) BDRip-AVC | Лицензия
  • Одинокий рейнджер / The Lone Ranger (2013) BDRip от Youtracker
  • Одинокий рейнджер / The Lone Ranger (2013) BDRip 1080p | D | Лицензия


    • Комментарии (0):

      Информация

      Информация

        Посетители, находящиеся в группе Гости, не могут оставлять комментарии в данной новости.

        ↓ Меню



        ↓ Опрос

        А Вы добавили сайт в закладки?
        Да
        Не


        Top 10 за месяц (Фильмы)