.
Авторизация | Регистрация
Хочешь лучшие торренты? Добавь свой email!
Добавить
» » Менталист / The Mentalist (2013) HDTVRip скачать торрент бесплатно




    Менталист / The Mentalist (2013) HDTVRip скачать торрент бесплатно

    Опубликовал: Админ | Дата: 27-02-2015, 11:09 | Просмотров: 475

    Менталист / The Mentalist



    Год выпуска: 2013
    Страна: США
    Жанр: драма, криминал
    Продолжительность: 00:42:20

    Перевод: Любительский (одноголосый закадровый) (napaBo3uk)
    Русские субтитры: нет
    Режиссёр: Крис Лонг

    В ролях: Саймон Бейкер, Робин Танни, Аманда Риджетти, Тим Кенг, Овайн Йомен, Грегори Итцин.

    Описание: Патрик Джейн - детектив и независимый консультант из Калифорнийского Бюро Расследований (КБР). Он использует свои отточенные, как лезвие, навыки наблюдения для раскрытия тяжких преступлений. В самом Бюро Джейн известен за частые нарушения протокола, а также за его звездное прошлое: он работал медиумом, однако теперь сам признает, что симулировал паранормальные способности.

    Сэмпл: http://multi-up.com/908467

    Качество: HDTVRip
    Формат: AVI
    Видео кодек: XviD
    Аудио кодек: MP3
    Видео: 1239 Кбит/сек, 704*400 (16:9), в 23,976 кадр/сек, MPEG-4 Visual (XviD)
    Аудио: RUS, 160 Кбит/сек, 48,0 КГц, 2 канала(ов), MPEG Audio (MP3)
    Аудио 2: ENG, 160 Кбит/сек, 48,0 КГц, 2 канала(ов), MPEG Audio (MP3)
    Субтитры: отсутствуют

    MediaInfo

    Общее
    Полное имя : H:The.Mentalist.s06e01.HDTVRip.rus-eng.napaBo3uk.avi
    Формат : AVI
    Формат/Информация : Audio Video Interleave
    Размер файла : 476 Мбайт
    Продолжительность : 42 м.
    Общий поток : 1573 Кбит/сек
    Программа кодирования : VirtualDubMod 1.5.10.2 (build 2540/release)
    Библиотека кодирования : VirtualDubMod build 2540/release

    Видео
    Идентификатор : 0
    Формат : MPEG-4 Visual
    Профиль формата : Advanced Simple@L5
    Параметр BVOP формата : 2
    Параметр QPel формата : Нет
    Параметр GMC формата : Без точки перехода
    Параметр матрицы формата : Default (H.263)
    Идентификатор кодека : XVID
    Идентификатор кодека/Подсказка : XviD
    Продолжительность : 42 м.
    Битрейт : 1239 Кбит/сек
    Ширина : 704 пикс.
    Высота : 400 пикс.
    Соотношение сторон : 16:9
    Частота кадров : 23,976 кадр/сек
    Цветовое пространство : YUV
    Подвыборка цветности : 4:2:0
    Битовая глубина : 8 бит
    Тип развёртки : Прогрессивная
    Метод сжатия : С потерями
    Бит/(Пиксели*Кадры) : 0.183
    Размер потока : 375 Мбайт (79%)
    Библиотека кодирования : XviD 64

    Аудио #1
    Идентификатор : 1
    Формат : MPEG Audio
    Версия формата : Version 1
    Профиль формата : Layer 3
    Режим : Joint stereo
    Расширение режима : MS Stereo
    Идентификатор кодека : 55
    Идентификатор кодека/Подсказка : MP3
    Продолжительность : 42 м.
    Вид битрейта : Постоянный
    Битрейт : 160 Кбит/сек
    Канал(ы) : 2 канала(ов)
    Частота : 48,0 КГц
    Метод сжатия : С потерями
    Размер потока : 48,5 Мбайт (10%)
    Выравнивание : Разделение по промежуткам
    Продолжительность промежутка : 42 мс. (1,00 видеокадр)
    Время предзагрузки промежутка : 500 ms

    Аудио #2
    Идентификатор : 2
    Формат : MPEG Audio
    Версия формата : Version 1
    Профиль формата : Layer 3
    Режим : Joint stereo
    Расширение режима : MS Stereo
    Идентификатор кодека : 55
    Идентификатор кодека/Подсказка : MP3
    Продолжительность : 42 м.
    Вид битрейта : Постоянный
    Битрейт : 160 Кбит/сек
    Канал(ы) : 2 канала(ов)
    Частота : 48,0 КГц
    Метод сжатия : С потерями
    Размер потока : 48,5 Мбайт (10%)
    Выравнивание : Разделение по промежуткам
    Продолжительность промежутка : 42 мс. (1,00 видеокадр)
    Время предзагрузки промежутка : 500 ms



    Скриншоты



    Залил: S.T.A.L.K.E.R.2
    Размер: 476.32 MB (499460096 Bytes)

    Менталист / The Mentalist (2013) HDTVRip торрент скачать бесплатно
    загрузка...
    Рейтинг →
     (голосов: 1, оценка 4/5, голосовать можно 1 раз )

    Другие торренты по теме:

  • Менталист / The Mentalist (2011) WEB-DLRip
  • Менталист The Mentalist (2012-2013) WEB-DL 720p | Universal Russia
  • Менталист / The Mentalist (2012-2013) WEB-DL 720p | Universal Russia
  • Менталист / The Mentalist (2012-2013) WEB-DLRip | Universal Russia скачать через торрент бесплатно
  • Менталист / The Mentalist (2008-2013) BDRip, WEB-DLRip | D | ТВ3
  • Менталист / The Mentalist (2013) WEB-DLRip | BaibaKo
  • Менталист / The Mentalist (2013) WEB-DLRip | Jetvis Studio
  • Менталист / The Mentalist (2013) WEB-DL 720p | Jetvis Studio


    • Комментарии (0):

      Информация

      Информация

        Посетители, находящиеся в группе Гости, не могут оставлять комментарии в данной новости.

        ↓ Меню



        ↓ Опрос

        А Вы добавили сайт в закладки?
        Да
        Не


        Top 10 за месяц (Фильмы)