.
Авторизация | Регистрация
Хочешь лучшие торренты? Добавь свой email!
Добавить
» » Синдбад и Глаз Тигра / Sinbad and the Eye of the Tiger (1977) DVDRip от Youtracker скачать торрент бесплатно




    Синдбад и Глаз Тигра / Sinbad and the Eye of the Tiger (1977) DVDRip от Youtracker скачать торрент бесплатно

    Опубликовал: Админ | Дата: 27-02-2015, 11:09 | Просмотров: 478


    Страна: США
    Производство: Andor Films, Columbia Pictures Corporation
    Жанр: фэнтези, боевик, приключения, семейный
    Год выпуска: 1977
    Продолжительность: 01:52:59

    Перевод: Профессиональный (Многоголосый, закадровый)
    Оригинальная аудиодорожка: нет
    Cубтитры: нет

    Режиссер: Сэм Уонамейкер / Sam Wanamaker

    В ролях:
    Патрик Вейн, Джейн Сеймур, Тэрин Пауэр, Маргарет Уайтинг, Патрик Тротон, Курт Кристиан, Дэмиен Томас, Бернард Кэй...

    Описание:
    Синдбад держит путь в землю Чарок для того, чтобы просить руки принцессы Фары у ее брата принца Кассима. Однако, приплыв туда, он узнает, что волшебница Зенобия наложила на Кассима проклятие, превратив его в бабуина.
    Королева Зенобия сделала это, для того, чтобы калифом смог стать ее сын принц Рафи. Синдбад решает восстановить справедливость и вступает в схватку с волшебницей, то и дело принимающей облик дикой тигрицы…



    Исходник: DVD5 R1 (полный вариант фильма - ремастированная версия)
    Тип релиза: DVDRip
    Контейнер: AVI

    Видео: 640x352 (16:9), 23.976 fps, XviD ~ 785 kbps avg, 0.145 bit/pixel
    Аудио: 48 kHz, MP3 2.0, 128 kbps

    Раздача от:
    MediaInfo

    Общее
    Полное имя : Sinbad.i.glaz.tigra.1977.DVDRip-745_Youtracker_by_AVP Studio.avi
    Формат : AVI
    Формат/Информация : Audio Video Interleave
    Размер файла : 746 Мбайт
    Продолжительность : 1 ч. 52 м.
    Общий поток : 923 Кбит/сек
    Программа кодирования : VirtualDubModRus 1.5.10.2 (build 2542/release)
    Библиотека кодирования : VirtualDubMod build 2542/release

    Видео
    Идентификатор : 0
    Формат : MPEG-4 Visual
    Профиль формата : Advanced Simple@L5
    Параметр BVOP формата : 1
    Параметр QPel формата : Нет
    Параметр GMC формата : Без точки перехода
    Параметр матрицы формата : Выборочная
    Идентификатор кодека : XVID
    Идентификатор кодека/Подсказка : XviD
    Продолжительность : 1 ч. 52 м.
    Битрейт : 785 Кбит/сек
    Ширина : 640 пикселей
    Высота : 352 пикселя
    Соотношение сторон : 16:9
    Частота кадров : 23,976 кадра/сек
    Цветовое пространство : YUV
    Субдискретизация насыщенности : 4:2:0
    Битовая глубина : 8 бит
    Тип развёртки : Прогрессивная
    Метод сжатия : С потерями
    Бит/(Пиксели*Кадры) : 0.145
    Размер потока : 635 Мбайт (85%)
    Библиотека кодирования : XviD 73

    Аудио
    Идентификатор : 1
    Формат : MPEG Audio
    Версия формата : Version 1
    Профиль формата : Layer 3
    Идентификатор кодека : 55
    Идентификатор кодека/Подсказка : MP3
    Продолжительность : 1 ч. 52 м.
    Вид битрейта : Постоянный
    Битрейт : 128 Кбит/сек
    Каналы : 2 канала
    Частота : 48,0 КГц
    Метод сжатия : С потерями
    Размер потока : 103 Мбайт (14%)
    Выравнивание : Соединение по промежуткам
    Продолжительность промежутка : 42 мс. (1,00 видеокадр)
    Время предзагрузки промежутка : 504 мс.
    Библиотека кодирования : LAME3.99r
    Залил: AVPStudio
    Размер: 745.64 MB (781856768 Bytes)


    Синдбад и Глаз Тигра / Sinbad and the Eye of the Tiger (1977) DVDRip от Youtracker торрент скачать бесплатно
    загрузка...
    Рейтинг →
     (голосов: 1, оценка 3/5, голосовать можно 1 раз )

    Другие торренты по теме:

  • Синдбад и Минотавр / Sinbad and the Minotaur (2011) HDRip от Youtracker | P
  • Синдбад и Глаз Тигра / Sinbad and the Eye of the Tiger (1977) DVDRip-AVC от Youtracker
  • Синдбад и Глаз Тигра / Sinbad and the Eye of the Tiger (1977) BDRip 720p | P, A


    • Комментарии (0):

      Информация

      Информация

        Посетители, находящиеся в группе Гости, не могут оставлять комментарии в данной новости.

        ↓ Меню



        ↓ Опрос

        А Вы добавили сайт в закладки?
        Да
        Не


        Top 10 за месяц (Фильмы)