.
Авторизация | Регистрация
Хочешь лучшие торренты? Добавь свой email!
Добавить
» » Европа / Europa Report (2013) BDRip 1080p | L1 скачать торрент бесплатно




    Европа / Europa Report (2013) BDRip 1080p | L1 скачать торрент бесплатно

    Опубликовал: Админ | Дата: 27-02-2015, 11:09 | Просмотров: 383



    Информация о фильме
    Название: Европа
    Оригинальное название: Europa Report
    Год выхода: 2013
    Жанр: фантастика, триллер
    Режиссер: Себастьян Кордеро
    В ролях: Шарлто Копли, Эмбет Дэвидц, Микаэл Нюквист, Кристиан Камарго, Каролина Выдра, Дэниэл Ву, Исайя Уитлок мл., Анамария Маринка

    О фильме: Фильм повествует о международной космической экспедиции к четвертому спутнику Юпитера, которую снаряжает некая частная корпорация. Цель полета — высадиться на европейскую твердь, где, как считают некоторые ученые, существует вероятность возникновения жизни.



    Выпущено: США, Wayfare Entertainment
    Продолжительность: 01:30:25
    Озвучивание: Любительское (одноголосое) - den904, перевод - Janetta

    Файл
    Качество: BDRip 1080p
    Формат: MKV
    Видео: MPEG-4 AVC, 14.0 Мбит/сек, 1920x1080 (16:9), 23.976 Кадра/сек, 0.282 Бит/(Пиксели*Кадры)
    Аудио 1: AC3, 6 ch, 384 Кбит/с | RUS
    Аудио 2: DTS, 6 ch, 1509 Кбит/сек | ENG
    Аудио 3: AC3, 6 ch, 640 Кбит/с | ENG
    Навигация по главам: Есть
    Субтитры: Русские, испанские (PGS)

    MediaInfo:
    Общее
    Уникальный идентификатор : 239832407500899243126469979183071099657 (0xB46E0AA151E52F668FEB501FAADFFB09)
    Полное имя : Europa.Report.(2013).BDRip.1080p.mkv
    Формат : Matroska
    Версия формата : Version 2
    Размер файла : 10,8 Гбайт
    Продолжительность : 1 ч. 30 м.
    Режим общего битрейта : Переменный
    Общий поток : 17,0 Мбит/сек
    Дата кодирования : UTC 2013-10-01 13:02:08
    Программа кодирования : mkvmerge v5.8.0 (;No Sleep / Pillow;) built on Sep 2 2012 15:37:04
    Библиотека кодирования : libebml v1.2.3 libmatroska v1.3.0

    Видео
    Идентификатор : 1
    Формат : AVC
    Формат/Информация : Advanced Video Codec
    Профиль формата : High@L4.1
    Параметр CABAC формата : Да
    Параметр ReFrames формата : 4 кадра
    Идентификатор кодека : V_MPEG4/ISO/AVC
    Продолжительность : 1 ч. 30 м.
    Вид битрейта : Переменный
    Номинальный битрейт : 14,0 Мбит/сек
    Максимальный битрейт : 30,0 Мбит/сек
    Ширина : 1920 пикселей
    Высота : 1080 пикселей
    Соотношение сторон : 16:9
    Режим частоты кадров : Постоянный
    Частота кадров : 23,976 кадра/сек
    Цветовое пространство : YUV
    Субдискретизация насыщенности : 4:2:0
    Битовая глубина : 8 бит
    Тип развёртки : Прогрессивная
    Бит/(Пиксели*Кадры) : 0.282
    Библиотека кодирования : x264 core 135 r2345 f0c1c53
    Настройки программы : cabac=1 / ref=4 / deblock=1:0:0 / analyse=0x3:0x133 / me=umh / subme=9 / psy=1 / psy_rd=1.00:0.00 / mixed_ref=1 / me_range=16 / chroma_me=1 / trellis=2 / 8x8dct=1 / cqm=0 / deadzone=21,11 / fast_pskip=1 / chroma_qp_offset=-2 / threads=12 / lookahead_threads=1 / sliced_threads=0 / slices=4 / nr=0 / decimate=1 / interlaced=0 / bluray_compat=1 / constrained_intra=0 / bframes=3 / b_pyramid=0 / b_adapt=1 / b_bias=0 / direct=3 / weightb=1 / open_gop=0 / weightp=1 / keyint=24 / keyint_min=1 / scenecut=40 / intra_refresh=0 / rc_lookahead=24 / rc=2pass / mbtree=1 / bitrate=14020 / ratetol=1.0 / qcomp=0.60 / qpmin=0 / qpmax=69 / qpstep=4 / cplxblur=20.0 / qblur=0.5 / vbv_maxrate=30000 / vbv_bufsize=30000 / nal_hrd=vbr / ip_ratio=1.10 / aq=1:1.00
    Язык : English
    Default : Да
    Forced : Нет

    Аудио #1
    Идентификатор : 2
    Формат : AC-3
    Формат/Информация : Audio Coding 3
    Расширение режима : CM (complete main)
    Параметр Endianness формата : Big
    Идентификатор кодека : A_AC3
    Продолжительность : 1 ч. 30 м.
    Вид битрейта : Постоянный
    Битрейт : 384 Кбит/сек
    Каналы : 6 каналов
    Расположение каналов : Front: L C R, Side: L R, LFE
    Частота : 48,0 КГц
    Битовая глубина : 16 бит
    Метод сжатия : С потерями
    Размер потока : 248 Мбайт (2%)
    Заголовок : RUS.L1
    Язык : Russian
    Default : Да
    Forced : Нет

    Аудио #2
    Идентификатор : 3
    Формат : DTS
    Формат/Информация : Digital Theater Systems
    Профиль формата : MA / Core
    Режим : 16
    Параметр Endianness формата : Big
    Идентификатор кодека : A_DTS
    Продолжительность : 1 ч. 30 м.
    Вид битрейта : Переменный
    Битрейт : Неизвестно / 1509 Кбит/сек
    Каналы : 6 каналов
    Расположение каналов : Front: L C R, Side: L R, LFE
    Частота : 48,0 КГц
    Битовая глубина : 16 бит
    Метод сжатия : Без потерь / Lossy
    Заголовок : ENG.DTS
    Язык : English
    Default : Нет
    Forced : Нет

    Аудио #3
    Идентификатор : 4
    Формат : AC-3
    Формат/Информация : Audio Coding 3
    Расширение режима : CM (complete main)
    Параметр Endianness формата : Big
    Идентификатор кодека : A_AC3
    Продолжительность : 1 ч. 30 м.
    Вид битрейта : Постоянный
    Битрейт : 640 Кбит/сек
    Каналы : 6 каналов
    Расположение каналов : Front: L C R, Side: L R, LFE
    Частота : 48,0 КГц
    Битовая глубина : 16 бит
    Метод сжатия : С потерями
    Размер потока : 414 Мбайт (4%)
    Заголовок : ENG.AC3
    Язык : English
    Default : Нет
    Forced : Нет

    Текст #1
    Идентификатор : 5
    Формат : PGS
    Режим смешивания : zlib
    Идентификатор кодека : S_HDMV/PGS
    Идентификатор кодека/Информация : The same subtitle format used on BDs/HD-DVDs
    Заголовок : Eng.PGS
    Язык : English
    Default : Нет
    Forced : Нет

    Текст #2
    Идентификатор : 6
    Формат : PGS
    Режим смешивания : zlib
    Идентификатор кодека : S_HDMV/PGS
    Идентификатор кодека/Информация : The same subtitle format used on BDs/HD-DVDs
    Заголовок : SPA.PGS
    Язык : Spanish
    Default : Нет
    Forced : Нет

    Меню
    00:00:00.000 : en:00:00:00.000
    00:07:24.944 : en:00:07:24.944
    00:15:46.987 : en:00:15:46.987
    00:22:05.490 : en:00:22:05.490
    00:28:40.218 : en:00:28:40.218
    00:34:55.718 : en:00:34:55.718
    00:40:22.253 : en:00:40:22.253
    00:51:24.081 : en:00:51:24.081
    00:59:42.996 : en:00:59:42.996
    01:09:13.649 : en:01:09:13.649
    01:18:32.332 : en:01:18:32.332
    01:24:27.145 : en:01:24:27.145
    01:30:25.086 : en:01:30:25.086

    Скриншоты:


    Релиз от:
    Размер: 10.76 GB (11556633041 Bytes)

    Европа / Europa Report (2013) BDRip 1080p | L1 торрент скачать бесплатно
    загрузка...
    Рейтинг →
     (голосов: 1, оценка 5/5, голосовать можно 1 раз )

    Другие торренты по теме:

  • Европа, Европа / Europa Europa (1990) DVDRip от FilmRus | P скачать через торрент бесплатно
  • VA - Экспресс Хиты От Европа Плюс (2013) Mp3
  • Wargame: Европа в огне / Wargame: European Escalation (2012) PC | RePack от R.G. REVOLUTiON
  • Неизвестная Европа (2012) SATRip
  • Фред Функен, Лилиан Функен - Энциклопедия вооружения и военного костюма. Европа XIX век (2002) PDF
  • Фред Функен, Лилиан Функен - Европа XVIII век. (2003) PDF
  • Европа: Древний Рим / Europa Universalis: Rome (2008) PC | Лицензия
  • Право голоса. Аморальная Европа (2013) WEBRip


    • Комментарии (0):

      Информация

      Информация

        Посетители, находящиеся в группе Гости, не могут оставлять комментарии в данной новости.

        ↓ Меню



        ↓ Опрос

        А Вы добавили сайт в закладки?
        Да
        Не


        Top 10 за месяц (Фильмы)