.
Авторизация | Регистрация
Хочешь лучшие торренты? Добавь свой email!
Добавить
» » Атлантида / Atlantis (2013) HDTVRip-AVC | P скачать через торрент бесплатно




    Атлантида / Atlantis (2013) HDTVRip-AVC | P скачать через торрент бесплатно

    Опубликовал: Админ | Дата: 27-02-2015, 11:09 | Просмотров: 560



    Название: Атлантида
    Оригинальное название: Atlantis
    Год выпуска: 2013
    Жанр: Приключения, фэнтези
    Режиссер: Джастин Молотников
    В ролях: Джек Доннелли, Роберт Эммс, Марк Эдди, Джульет Стивенсон, Сара Пэриш, Александр Сиддиг, Джемима Рупер

    Описание: Атлантида — таинственный древний город, в котором дворцы так огромны, что ходят предания, будто их строили сами великаны. Мир населяют змееволосые богини и царствует чудовище Минотавр. Именно в это странное, манящее королевство попадает юный Ясон, так и начинается его захватывающее путешествие, основанное на множестве греческих мифов и легенд, переписанных для нового поколения.

    Выпущено: Великобритания, BBC One
    Продолжительность: 00:45:17
    Перевод: Профессиональный многоголосый - Baibako

    Качество: HDTVRip-AVC
    Видео: MPEG-4 AVC, 2295 Кбит/с, 1024x576
    Аудио rus: Русский (AC3, 2 ch, 192 Кбит/с)

    Список серий
    01. Критский быкк / Earth Bull
    Инфо
    Полное имя : E:Атлантида1Atlantis.s01e01.tahiy.mkv
    Формат : Matroska
    Версия формата : Version 4 / Version 2
    Размер файла : 805 Мбайт
    Продолжительность : 45 м.
    Общий поток : 2487 Кбит/сек
    Название фильма : Атлантида / Atlantis - = Rip by tahiy = -
    Дата кодирования : UTC 2013-09-29 22:41:34
    Программа кодирования : mkvmerge v6.3.0 (;You can;t stop me!;) built on Jul 19 2013 16:27:38
    Библиотека кодирования : libebml v1.3.0 libmatroska v1.4.1

    Видео
    Идентификатор : 1
    Формат : AVC
    Формат/Информация : Advanced Video Codec
    Профиль формата : High@L4.1
    Параметр CABAC формата : Да
    Параметр ReFrames формата : 8 кадров
    Идентификатор кодека : V_MPEG4/ISO/AVC
    Продолжительность : 45 м.
    Битрейт : 2295 Кбит/сек
    Ширина : 1024 пикселя
    Высота : 576 пикселей
    Соотношение сторон : 16:9
    Режим частоты кадров : Постоянный
    Частота кадров : 25,000 кадров/сек
    Цветовое пространство : YUV
    Субдискретизация насыщенности : 4:2:0
    Битовая глубина : 8 бит
    Тип развёртки : Прогрессивная
    Бит/(Пиксели*Кадры) : 0.156
    Размер потока : 727 Мбайт (90%)
    Заголовок : Атлантида / Atlantis - = Rip by tahiy = -
    Библиотека кодирования : x264 core 130 r2273 b3065e6
    Настройки программы : cabac=1 / ref=8 / deblock=1:-2:-2 / analyse=0x3:0x113 / me=umh / subme=10 / psy=1 / psy_rd=1.00:0.20 / mixed_ref=1 / me_range=32 / chroma_me=1 / trellis=2 / 8x8dct=1 / cqm=0 / deadzone=21,11 / fast_pskip=0 / chroma_qp_offset=-3 / threads=3 / lookahead_threads=1 / sliced_threads=0 / nr=0 / decimate=0 / interlaced=0 / bluray_compat=0 / constrained_intra=0 / bframes=10 / b_pyramid=2 / b_adapt=2 / b_bias=0 / direct=3 / weightb=1 / open_gop=0 / weightp=2 / keyint=250 / keyint_min=25 / scenecut=40 / intra_refresh=0 / rc_lookahead=40 / rc=2pass / mbtree=0 / bitrate=2295 / ratetol=1.0 / qcomp=0.60 / qpmin=0 / qpmax=69 / qpstep=4 / cplxblur=20.0 / qblur=0.5 / vbv_maxrate=50000 / vbv_bufsize=62500 / nal_hrd=none / ip_ratio=1.40 / pb_ratio=1.30 / aq=1:1.00
    Язык : English
    Default : Да
    Forced : Нет

    Аудио
    Идентификатор : 2
    Формат : AC-3
    Формат/Информация : Audio Coding 3
    Расширение режима : CM (complete main)
    Параметр Endianness формата : Big
    Идентификатор кодека : A_AC3
    Продолжительность : 45 м.
    Вид битрейта : Постоянный
    Битрейт : 192 Кбит/сек
    Каналы : 2 канала
    Расположение каналов : Front: L R
    Частота : 48,0 КГц
    Битовая глубина : 16 бит
    Метод сжатия : С потерями
    Размер потока : 62,2 Мбайт (8%)
    Заголовок : Baibako
    Язык : Russian
    Default : Да
    Forced : Нет


    Скриншоты


    Внимание! Раздача ведётся путём добавления новых серий!

    Внимание! Раздача ведётся путём добавления новых серий; при каждом добавлении создfётся новый торрент. Чтобы начать докачку новой серии, пользователям необходимо сделать следующее: (1) остановить скачивание, (2) удалить старый торрент у себя из клиента (старые серии удалять не надо), (3) скачать новый торрент и запустить его у себя в клиенте вместо старого, при этом указать клиенту путь в старую папку куда и должно происходить скачивание новых серий.

    Ваш клиент при этом должен произвести хеширование (проверку) старой папки (если не производит сам - помогите ему сделать это), и будет докачивать только те серии которых у вас ещё нет. Старые серии при этом не удаляются, а продолжают раздаваться!

    Eсли вы уже удалили старые серии, то предотвратить повторную закачку старых серий можно, отжав галочку в соответсвующих местах при запуске нового торрента.

    Размер: 805.25 MB (844362850 Bytes)

    Атлантида / Atlantis (2013) HDTVRip-AVC | P скачать через торрент бесплатно
    загрузка...
    Рейтинг →
     (голосов: 1, оценка 3/5, голосовать можно 1 раз )

    Другие торренты по теме:

  • Атлантида: Затерянный мир / Atlantis: The Lost Empire (2001) HDTVRip
  • OST - Атлантида: Затерянный мир / Atlantis: The Lost Empire (2001) MP3
  • Теория заговора: Черноморская Атлантида: По следам троглодитов (2012) TVRip
  • Теория заговора: Черноморская Атлантида: Дело о крымских пирамидах (2012) TVRip
  • Теория заговора: Черноморская Атлантида: Потерянные технологии (2012) TVRip
  • Теория заговора: Черноморская Атлантида: Города нимф (2012) TVRip
  • Теория заговора: Черноморская Атлантида: Наследие Богов (2012) TVRip
  • Теория заговора: Черноморская Атлантида: Царство Аида (2012) TVRip


    • Комментарии (0):

      Информация

      Информация

        Посетители, находящиеся в группе Гости, не могут оставлять комментарии в данной новости.

        ↓ Меню



        ↓ Опрос

        А Вы добавили сайт в закладки?
        Да
        Не


        Top 10 за месяц (Фильмы)