.
Авторизация | Регистрация
Хочешь лучшие торренты? Добавь свой email!
Добавить
» » Доказательство смерти / Death Proof (2007) DVD9 DVD5 | D | Коллекционное издание скачать через торрент бесплатно




    Доказательство смерти / Death Proof (2007) DVD9 DVD5 | D | Коллекционное издание скачать через торрент бесплатно

    Опубликовал: Админ | Дата: 27-02-2015, 11:09 | Просмотров: 382



    Информация о фильме
    Название: Доказательство смерти
    Оригинальное название: Death Proof
    Год выхода: 2007
    Жанр: боевик, триллер, криминал
    Режиссер: Квентин Тарантино
    В ролях: Курт Рассел, Розарио Доусон, Ванесса Ферлито, Мэри Элизабет Уинстэд, Зои Белл, Джордан Лэдд, Роуз МакГоун, Сидни Тамиа Пуатье, Трейси Томс, Моника Стэггс

    О фильме:
    Три красотки решают развлечься и отправляются в ресторанчик. Они даже не подозревают, что на этот раз их ждет особый интерес со стороны мужчин! Каскадер Майк украдкой наблюдает за ними из своего автомобиля. Он любит быструю езду и не прочь подбросить до дома симпатичную девушку. А ещё он считает, что выйдет сухим из воды даже в случае самой ужасной аварии…




    Страна: США
    Студия: Dimension Films, Rodriguez International Pictures, The Weinstein Company LLC, Troublemaker Studios
    Продолжительность: 114 мин. / 01:54
    Перевод: Полное дублирование

    Файл
    Кодек: MPEG2
    Качество: DVD9 DVD5
    Видео: PAL 16:9 (720x576) VBR 6892 Kbps, 25.000 fps
    Звук 1: Dolby AC3, 6 ch, 48.0 KHz, 384 Kbps русский, английский
    Звук 2: DTS 6 ch, 48.0 KHz, 1510 Kbps русский
    Субтитры: русские, украинские

    Коллекционное издание из 2 дисков: DVD9 с фильмом и DVD5 с бонусами

    MediaInfo
    General
    Complete name : E:Dokazatel;stvo_smerti_2DVD1. DVD9VIDEO_TSVTS_08_1.VOB
    Format : MPEG-PS
    File size : 1 024 MiB
    Duration : 15mn 18s
    Overall bit rate mode : Variable
    Overall bit rate : 9 356 Kbps

    Video
    ID : 224 (0xE0)
    Format : MPEG Video
    Format version : Version 2
    Format profile : Main@Main
    Format settings, BVOP : No
    Format settings, Matrix : Custom
    Format settings, GOP : Variable
    Duration : 15mn 18s
    Bit rate mode : Variable
    Bit rate : 6 892 Kbps
    Maximum bit rate : 9 800 Kbps
    Width : 720 pixels
    Height : 576 pixels
    Display aspect ratio : 16:9
    Frame rate : 25.000 fps
    Standard : PAL
    Color space : YUV
    Chroma subsampling : 4:2:0
    Bit depth : 8 bits
    Scan type : Interlaced
    Scan order : Top Field First
    Compression mode : Lossy
    Bits/(Pixel*Frame) : 0.665
    Time code of first frame : 00:00:00:00
    Time code source : Group of pictures t_head
    Stream size : 754 MiB (74%)

    Audio #1
    ID : 189 (0xBD)-128 (0x80)
    Format : AC-3
    Format/Info : Audio Coding 3
    Mode extension : CM (complete main)
    Format settings, Endianness : Big
    Muxing mode : DVD-Video
    Duration : 15mn 17s
    Bit rate mode : Constant
    Bit rate : 384 Kbps
    Channel count : 6 channels
    Channel positions : Front: L C R, Side: L R, LFE
    Sampling rate : 48.0 KHz
    Bit depth : 16 bits
    Compression mode : Lossy
    Stream size : 42.0 MiB (4%)

    Audio #2
    ID : 189 (0xBD)-129 (0x81)
    Format : AC-3
    Format/Info : Audio Coding 3
    Mode extension : CM (complete main)
    Format settings, Endianness : Big
    Muxing mode : DVD-Video
    Duration : 15mn 17s
    Bit rate mode : Constant
    Bit rate : 384 Kbps
    Channel count : 6 channels
    Channel positions : Front: L C R, Side: L R, LFE
    Sampling rate : 48.0 KHz
    Bit depth : 16 bits
    Compression mode : Lossy
    Stream size : 42.0 MiB (4%)

    Audio #3
    ID : 189 (0xBD)-138 (0x8A)
    Format : DTS
    Format/Info : Digital Theater Systems
    Mode : 16
    Format settings, Endianness : Big
    Muxing mode : DVD-Video
    Duration : 15mn 17s
    Bit rate mode : Constant
    Bit rate : 1 510 Kbps
    Channel count : 6 channels
    Channel positions : Front: L C R, Side: L R, LFE
    Sampling rate : 48.0 KHz
    Bit depth : 24 bits
    Compression mode : Lossy
    Stream size : 165 MiB (16%)

    Menu

    Скриншоты

    Залил: carisha
    Размер: 11.98 GB (12868204544 Bytes)

    Доказательство смерти / Death Proof (2007) DVD9 DVD5 | D | Коллекционное издание скачать через торрент бесплатно
    загрузка...
    Рейтинг →
     (голосов: 1, оценка 5/5, голосовать можно 1 раз )

    Другие торренты по теме:

  • Доказательство смерти / Death Proof (2007) BDRip-AVC
  • OST - Доказательство смерти / Death Proof (2007) MP3
  • Доказательство смерти / Death Proof (2007) HDRip от Scarabey
  • Доказательство смерти / Death Proof (2007) BDRip 1080p скачать через торрент бесплатно
  • Доказательство Смерти / Death Proof (2007) BDRip 1080p | Unrated | D, A
  • Доказательство смерти / Death Proof (2007) HDRip-AVC | D


    • Комментарии (0):

      Информация

      Информация

        Посетители, находящиеся в группе Гости, не могут оставлять комментарии в данной новости.

        ↓ Меню



        ↓ Опрос

        А Вы добавили сайт в закладки?
        Да
        Не


        Top 10 за месяц (Фильмы)