.
Авторизация | Регистрация
Хочешь лучшие торренты? Добавь свой email!
Добавить
» » Голый пистолет 33 1 / 3: Последний выпад / Naked Gun 33 1 / 3: The Final Insult (1994) BDRip от msltel скачать торрент бесплатно




    Голый пистолет 33 1 / 3: Последний выпад / Naked Gun 33 1 / 3: The Final Insult (1994) BDRip от msltel скачать торрент бесплатно

    Опубликовал: Админ | Дата: 27-02-2015, 11:09 | Просмотров: 361



    Название: Голый пистолет 33 1/3: Последний выпад
    Оригинальное название: Naked Gun 33 1/3: The Final Insult
    Год выпуска: 1994
    Жанр: Боевик, комедия, криминал
    Выпущено: США, Paramount Pictures
    Режиссер: Питер Сигал
    В ролях: Лесли Нильсен, Присцилла Пресли, Джордж Кеннеди, О. Дж. Симпсон, Фред Уорд, Кэтлин Фримен, Анна Николь Смит, Эллен Грин, Эд Уильямс, Рэй Бирк

    О фильме: В тюрьму к известному бомбисту-террористу Рокко приходит представитель арабских террористов и предлагает ему и его мамаше совершить ужасающий теракт за 5 миллионов. Остановить его может только наш лейтенант Фрэнк Дребин, ушедший на пенсию и решающий брачные проблемы с супругой-адвокатессой.

    Качество: BDRip
    Размер: 2.51 ГБ
    Продолжительность: 01:22:36

    Видео: XviD, 1899 Кбит/с, 720х400
    Аудио 1: русский, 48 kHz, AC3, 6 ch, 448 kbps avg, Профессиональный многоголосый
    Аудио 2: русский, 48 kHz, AC3, 2 ch, 192 kbps avg, Профессиональный многоголосый, НТВ

    Внешние файлы
    Аудио: русский, 48 kHz, AC3, 6 ch, 448 kbps avg, Профессиональный двухголосый, Инна Rоролёва и Пётр Гланц
    Аудио: русский, 48 kHz, AC3, 6 ch, 448 kbps avg, Авторский, Василий Горчаков
    Аудио: русский, 48 kHz, AC3, 6 ch, 448 kbps avg, Авторский, Алексей Михалёв
    Аудио: английский, 48 kHz, AC3, 6 ch, 448 kbps avg, Оригинал
    Субтитры: русские
    Субтитры: английские
    Субтитры: английские (для слабослышащих)

    Сравнение с исходником



    MediaInfo
    Общее
    Полное имя : E:VideoGolyj.pistolet.33.1994.XviD.BDRipGolyj.pistolet.33.1994.AVO.rus.А.Михалёв.ac3
    Формат : AC-3
    Формат/Информация : Audio Coding 3
    Размер файла : 265 Мбайт
    Продолжительность : 1 ч. 22 м.
    Режим общего битрейта : Постоянный
    Общий поток : 448 Кбит/сек

    Аудио
    Формат : AC-3
    Формат/Информация : Audio Coding 3
    Расширение режима : CM (complete main)
    Параметр Endianness формата : Big
    Продолжительность : 1 ч. 22 м.
    Вид битрейта : Постоянный
    Битрейт : 448 Кбит/сек
    Каналы : 6 каналов
    Расположение каналов : Front: L C R, Side: L R, LFE
    Частота : 48,0 КГц
    Битовая глубина : 16 бит
    Метод сжатия : С потерями
    Размер потока : 265 Мбайт (100%)

    Общее
    Полное имя : E:VideoGolyj.pistolet.33.1994.XviD.BDRipGolyj.pistolet.33.1994.AVO.rus.В.Горчаков.ac3
    Формат : AC-3
    Формат/Информация : Audio Coding 3
    Размер файла : 265 Мбайт
    Продолжительность : 1 ч. 22 м.
    Режим общего битрейта : Постоянный
    Общий поток : 448 Кбит/сек

    Аудио
    Формат : AC-3
    Формат/Информация : Audio Coding 3
    Расширение режима : CM (complete main)
    Параметр Endianness формата : Big
    Продолжительность : 1 ч. 22 м.
    Вид битрейта : Постоянный
    Битрейт : 448 Кбит/сек
    Каналы : 6 каналов
    Расположение каналов : Front: L C R, Side: L R, LFE
    Частота : 48,0 КГц
    Битовая глубина : 16 бит
    Метод сжатия : С потерями
    Размер потока : 265 Мбайт (100%)

    Общее
    Полное имя : E:VideoGolyj.pistolet.33.1994.XviD.BDRipGolyj.pistolet.33.1994.DVO.rus.Гланц.ac3
    Формат : AC-3
    Формат/Информация : Audio Coding 3
    Размер файла : 265 Мбайт
    Продолжительность : 1 ч. 22 м.
    Режим общего битрейта : Постоянный
    Общий поток : 448 Кбит/сек

    Аудио
    Формат : AC-3
    Формат/Информация : Audio Coding 3
    Расширение режима : CM (complete main)
    Параметр Endianness формата : Big
    Продолжительность : 1 ч. 22 м.
    Вид битрейта : Постоянный
    Битрейт : 448 Кбит/сек
    Каналы : 6 каналов
    Расположение каналов : Front: L C R, Side: L R, LFE
    Частота : 48,0 КГц
    Битовая глубина : 16 бит
    Метод сжатия : С потерями
    Размер потока : 265 Мбайт (100%)

    Общее
    Полное имя : E:VideoGolyj.pistolet.33.1994.XviD.BDRipGolyj.pistolet.33.1994.eng.srt
    Размер файла : 138 Кбайт

    Общее
    Полное имя : E:VideoGolyj.pistolet.33.1994.XviD.BDRipGolyj.pistolet.33.1994.Original.eng.ac3
    Формат : AC-3
    Формат/Информация : Audio Coding 3
    Размер файла : 265 Мбайт
    Продолжительность : 1 ч. 22 м.
    Режим общего битрейта : Постоянный
    Общий поток : 448 Кбит/сек

    Аудио
    Формат : AC-3
    Формат/Информация : Audio Coding 3
    Расширение режима : CM (complete main)
    Параметр Endianness формата : Big
    Продолжительность : 1 ч. 22 м.
    Вид битрейта : Постоянный
    Битрейт : 448 Кбит/сек
    Каналы : 6 каналов
    Расположение каналов : Front: L C R, Side: L R, LFE
    Частота : 48,0 КГц
    Битовая глубина : 16 бит
    Метод сжатия : С потерями
    Размер потока : 265 Мбайт (100%)

    Общее
    Полное имя : E:VideoGolyj.pistolet.33.1994.XviD.BDRipGolyj.pistolet.33.1994.rus.srt
    Размер файла : 150 Кбайт

    Общее
    Полное имя : E:VideoGolyj.pistolet.33.1994.XviD.BDRipGolyj.pistolet.33.1994.XviD.BDRip.avi
    Формат : AVI
    Формат/Информация : Audio Video Interleave
    Размер файла : 1,47 Гбайт
    Продолжительность : 1 ч. 22 м.
    Общий поток : 2553 Кбит/сек
    Программа кодирования : VirtualDubMod 1.5.10.2 (build 2540/release)
    Библиотека кодирования : VirtualDubMod build 2540/release

    Видео
    Идентификатор : 0
    Формат : MPEG-4 Visual
    Профиль формата : Advanced Simple@L5
    Параметр BVOP формата : 1
    Параметр QPel формата : Нет
    Параметр GMC формата : Без точки перехода
    Параметр матрицы формата : Default (H.263)
    Режим смешивания : Сжатый битовый поток
    Идентификатор кодека : XVID
    Идентификатор кодека/Подсказка : XviD
    Продолжительность : 1 ч. 22 м.
    Битрейт : 1899 Кбит/сек
    Ширина : 720 пикселей
    Высота : 400 пикселей
    Соотношение сторон : 16:9
    Частота кадров : 23,976 кадра/сек
    Цветовое пространство : YUV
    Субдискретизация насыщенности : 4:2:0
    Битовая глубина : 8 бит
    Тип развёртки : Прогрессивная
    Метод сжатия : С потерями
    Бит/(Пиксели*Кадры) : 0.275
    Размер потока : 1,10 Гбайт (74%)
    Библиотека кодирования : XviD 1.2.1 (UTC 2008-12-04)

    Аудио #1
    Идентификатор : 1
    Формат : AC-3
    Формат/Информация : Audio Coding 3
    Расширение режима : CM (complete main)
    Параметр Endianness формата : Big
    Идентификатор кодека : 2000
    Продолжительность : 1 ч. 22 м.
    Вид битрейта : Постоянный
    Битрейт : 448 Кбит/сек
    Каналы : 6 каналов
    Расположение каналов : Front: L C R, Side: L R, LFE
    Частота : 48,0 КГц
    Битовая глубина : 16 бит
    Метод сжатия : С потерями
    Размер потока : 264 Мбайт (18%)
    Выравнивание : Разделение по промежуткам
    Продолжительность промежутка : 42 мс. (1,00 видеокадр)
    Время предзагрузки промежутка : 500 мс.

    Аудио #2
    Идентификатор : 2
    Формат : AC-3
    Формат/Информация : Audio Coding 3
    Расширение режима : CM (complete main)
    Параметр Endianness формата : Big
    Идентификатор кодека : 2000
    Продолжительность : 1 ч. 22 м.
    Вид битрейта : Постоянный
    Битрейт : 192 Кбит/сек
    Каналы : 2 канала
    Расположение каналов : Front: L R
    Частота : 48,0 КГц
    Битовая глубина : 16 бит
    Метод сжатия : С потерями
    Размер потока : 113 Мбайт (8%)
    Выравнивание : Разделение по промежуткам
    Продолжительность промежутка : 42 мс. (1,00 видеокадр)
    Время предзагрузки промежутка : 500 мс.
    Скриншоты





    Залил: msltel
    Размер: 2.51 GB (2691991858 Bytes)

    Голый пистолет 33 1/3: Последний выпад / Naked Gun 33 1/3: The Final Insult (1994) BDRip от msltel торрент скачать бесплатно
    загрузка...
    Рейтинг →
     (голосов: 1, оценка 4/5, голосовать можно 1 раз )

    Другие торренты по теме:

  • Голый пистолет / The Naked Gun: From the Files of Police Squad! (1988) BDRip-AVC от olegek70 | P, P2, P1, A
  • Голый пистолет 33 1 / 3: Последний выпад / Naked Gun 33 1 / 3: The Final Insult (1994) HDTVRip-AVC от olegek70 | P, P2, A
  • Голый пистолет 2 1 / 2: запах страха / The Naked Gun 2 1 / 2: The Smell of Fear (1991) HDTVRip-AVC от olegek70 | P, P2, A
  • Голый пистолет / The Naked Gun: From the Files of Police Squad! (1988) BDRip 1080p от BT-Club
  • Голый пистолет 33 1 / 3: Последний выпад / Naked Gun 33 1 / 3: The Final Insult (1994) BDRip 720p от msltel скачать через торрент бесплатно
  • Голый пистолет 2 1 / 2: Запах страха / The Naked Gun 2 1 / 2: The Smell of Fear (1991) BDRip от msltel скачать через торрент бесплатно
  • Голый пистолет 2 1 / 2: Запах страха / The Naked Gun 2 1 / 2: The Smell of Fear (1991) BDRip 720p от msltel
  • Голый пистолет 2 1 / 2: Запах страха / The Naked Gun 2 1 / 2: The Smell of Fear (1991) BDRip 1080p от BT-Club скачать через торрент бесплатно


    • Комментарии (0):

      Информация

      Информация

        Посетители, находящиеся в группе Гости, не могут оставлять комментарии в данной новости.

        ↓ Меню



        ↓ Опрос

        А Вы добавили сайт в закладки?
        Да
        Не


        Top 10 за месяц (Фильмы)