.
Авторизация | Регистрация
Хочешь лучшие торренты? Добавь свой email!
Добавить
» » Мамаша / Мамочка / Mom (2013) WEB-DLRip 720p | Несмертельное оружие скачать через торрент бесплатно




    Мамаша / Мамочка / Mom (2013) WEB-DLRip 720p | Несмертельное оружие скачать через торрент бесплатно

    Опубликовал: Админ | Дата: 27-02-2015, 11:09 | Просмотров: 316

    - Мамаша -
    Mom

    Сезон: 1 / Серии: 1 (13)Страна: США
    Студия: Warner Bros. Television / Chuck Lorre Productions
    Жанр: комедия
    Год выпуска: 2013
    Продолжительность: 1 x ~22 мин.Перевод: Профессиональный (многоголосый закадровый) - Несмертельное оружие
    Русские субтитры: нетРежиссёр: Джефф Гринштейн / Jeff Greenstein

    В ролях: Анна Фэрис, Эллисон Дженни, Сэди Кальвано, Блейк Гаррет, Нэйтан Кордри, Спенсер Дэниелс, Мэтт Джонс, Френч Стюарт, Анджело Романелли, Антонио Гомес, Майлз Дж.Д. Веддер, Регги Де Леон, Девид де Латур, Кортни Хенгелер, Джесси Мерлин, Кэти Молинаро, Шэйн Блейдс, Джилл Ловер, Джордж Паэс, Джастин Лонг и др.

    Описание: Мамаша (Мамочка) – это новый ситком от Чака Лорри, автора Теория большого взрыва, Два с половиной человека и Майк и Молли о том, как недавно завязавшая с алкоголем мать-одиночка пытается вырастить двух детей, в мире полном различных соблазнов и преград.


    Перевод: Яна КуваеваТип релиза: WEB-DL 720p
    Контейнер: MKV
    Видео кодек: H264
    Аудио кодек: AC3
    Видео: 1280x720 (16:9), 23.976 fps, MPEG4 Video (H264) ~3943 Kbps, 0.178 bit/pixel
    | Аудио #1: 48 kHz, AC3 Dolby Digital, 3/2 (L,C,R,l,r) LFE ch, ~384.00 kbps avg | Russian | MVO
    | Аудио #2: 48 kHz, AC3 Dolby Digital, 3/2 (L,C,R,l,r) LFE ch, ~384.00 kbps avg | English | Original
    Скриншоты





    Список серий в раздаче

    Эпизод: 01
    Пилот (Pilot)
    Дата премьерного показа в США: 23 сентября 2013 г.


    MediaInfo

    General
    Unique ID : 186070369927872333403714206871362560133 (0x8BFBD9874C39E58A9EC5D18B68416085)
    Complete name : Mom.S01E01.Pilot.WEB-DL.720p.H.264.RUS.-Nesmertelnoe.oruzhie.mkv
    Format : Matroska
    Format version : Version 2
    File size : 782 MiB
    Duration : 22mn 43s
    Overall bit rate : 4 807 Kbps
    Movie name : Мамаша / Мамочка / Mom / Сезон: 1 / Эпизод: 01 - Пилот Релиз от: Несмертельное оружие
    Encoded date : UTC 2013-09-27 14:23:22
    Writing application : mkvmerge v5.2.1 (;A Far Off Place;) built on Jan 2 2012 23:21:10
    Writing library : libebml v1.2.3 libmatroska v1.3.0

    Video
    ID : 1
    Format : AVC
    Format/Info : Advanced Video Codec
    Format profile : High@L3.1
    Format settings, CABAC : No
    Format settings, ReFrames : 2 frames
    Codec ID : V_MPEG4/ISO/AVC
    Duration : 22mn 43s
    Bit rate : 3 943 Kbps
    Width : 1 280 pixels
    Height : 720 pixels
    Display aspect ratio : 16:9
    Frame rate mode : Constant
    Frame rate : 23.976 fps
    Color space : YUV
    Chroma subsampling : 4:2:0
    Bit depth : 8 bits
    Scan type : Progressive
    Bits/(Pixel*Frame) : 0.178
    Stream size : 641 MiB (82%)
    Language : English
    Default : Yes
    Forced : No
    Color primaries : BT.709
    Transfer characteristics : BT.709
    Matrix coefficients : BT.709

    Audio #1
    ID : 2
    Format : AC-3
    Format/Info : Audio Coding 3
    Mode extension : CM (complete main)
    Format settings, Endianness : Big
    Codec ID : A_AC3
    Duration : 22mn 43s
    Bit rate mode : Constant
    Bit rate : 384 Kbps
    Channel(s) : 6 channels
    Channel positions : Front: L C R, Side: L R, LFE
    Sampling rate : 48.0 KHz
    Bit depth : 16 bits
    Compression mode : Lossy
    Stream size : 62.4 MiB (8%)
    Title : MVO (Несмертельное оружие)
    Language : Russian
    Default : Yes
    Forced : No

    Audio #2
    ID : 3
    Format : AC-3
    Format/Info : Audio Coding 3
    Mode extension : CM (complete main)
    Format settings, Endianness : Big
    Codec ID : A_AC3
    Duration : 22mn 43s
    Bit rate mode : Constant
    Bit rate : 384 Kbps
    Channel(s) : 6 channels
    Channel positions : Front: L C R, Side: L R, LFE
    Sampling rate : 48.0 KHz
    Bit depth : 16 bits
    Compression mode : Lossy
    Stream size : 62.4 MiB (8%)
    Title : ENG Original
    Language : English
    Default : No
    Forced : No

    Промо-ролик

    ? ПРОМО РОЛИК ЗА КАДРОМ ?

    Внимание! Раздача ведется путём добавления новых серий

    Раздача ведётся путём добавления новых серий; при каждом добавлении создаётся новый торрент. Чтобы начать докачку новой серии, пользователям необходимо сделать следующее:• (1) остановить скачивание,
    • (2) удалить старый торрент у себя из клиента (старые серии удалять не надо),
    • (3) скачать новый торрент и запустить его у себя в клиенте вместо старого, при этом указать клиенту путь в старую папку куда и должно происходить скачивание новых серий.Ваш клиент при этом должен произвести хеширование (проверку) старой папки (если не производит сам - помогите ему сделать это), и будет докачивать только те серии которых у вас ещё нет. Старые серии при этом не удаляются, а продолжают раздаваться!
    Eсли вы уже удалили старые серии, то предотвратить повторную закачку старых серий можно, отжав галочку в соответствующих местах при запуске нового торрента. По возможности, желательно не удалять старые серии как можно дольше чтобы релизёр не столько продолжал раздавать старые серии, а смог сконцентрироваться на новых.

    Размер: 781.56 MB (819525904 Bytes)

    Мамаша / Мамочка / Mom (2013) WEB-DLRip 720p | Несмертельное оружие скачать через торрент бесплатно
    загрузка...
    Рейтинг →
     (голосов: 1, оценка 4/5, голосовать можно 1 раз )

    Другие торренты по теме:

  • Черная мамаша, белая мамаша / Black Mama, White Mama (1973) DVDRip-AVC от F-Torrents
  • Молодая мамаша / Pramface (2012) HDTVRip | L
  • Мамаша / Мамочка / Mom (2013) WEB-DLRip | Несмертельное оружие скачать через торрент бесплатно
  • Партия для чемпионки / Сорокалетняя мамаша (2013) SATRip скачать через торрент бесплатно
  • Хай, мамаша! / Hi, Mom! (1970) DVDRip от Brazzass
  • Нехорошая мамаша / Big Bad Mama (1974) DVDRip-AVC от AndreSweet
  • Нехорошая мамаша 2 / Big Bad Mama II (1987) DVDRip-AVC от AndreSweet скачать через торрент бесплатно
  • Партия для чемпионки (Сорокалетняя мамаша) (2013) WEB-DL 1080p от MediaClub


    • Комментарии (0):

      Информация

      Информация

        Посетители, находящиеся в группе Гости, не могут оставлять комментарии в данной новости.

        ↓ Меню



        ↓ Опрос

        А Вы добавили сайт в закладки?
        Да
        Не


        Top 10 за месяц (Фильмы)