.
Авторизация | Регистрация
Хочешь лучшие торренты? Добавь свой email!
Добавить
» » Замороженный / Hibernatus (1969) HDRip от Youtracker скачать через торрент бесплатно




    Замороженный / Hibernatus (1969) HDRip от Youtracker скачать через торрент бесплатно

    Опубликовал: Админ | Дата: 27-02-2015, 11:09 | Просмотров: 407

    Замороженный / Hibernatus

    Страна: Франция, Италия
    Жанр: фантастика, фэнтези, комедия
    Год выпуска: 1969
    Продолжительность: 01:21:52

    Перевод 1: Профессиональный (дублированный) Мосфильм
    Перевод 2: Профессиональный (многоголосый закадровый) Cinema Prestige
    Перевод 3: Профессиональный (многоголосый закадровый) Светла
    Cубтитры: нет
    Оригинальная аудиодорожка: нет

    Режиссер: Эдуар Молинаро / Edouard Molinaro

    В ролях: Луи де Фюнес, Микаэль Лонсдаль, Клоди Жансак, Бернар Алан, Анник Алан, Оливье Де Фюнес, Эльетт Демэ, Мартина Келли, Жак Легра, Паскаль Маззотти

    Описание: Юбер де Тартас, богатый промышленник, живет счастливо со своей женой Эдме и сыном. Но внезапно странное событие потрясает их жизнь: на полюсе найден замороженный дедушка его жены, пролежавший в ледяной глыбе 65 лет. Его выводят из состояния зимней спячки, а чтобы не травмировать дедушкину психику, пытаются инсценировать вокруг него жизнь начала XX века. Но в их планы вмешиваются непредвиденные обстоятельства...



    Качество видео: HDRip Hibernatus.1969.720p.WEB-DL.5xRus.Fre.Sub.HDCLUB
    Формат видео: AVI
    Видео кодек: XviD
    Аудио кодек: AC3
    Видео: 720x304 (2.37:1), 24.000 fps, XviD build 73 ~1970 kbps avg, 0.38 bit/pixel
    Аудио#1: 48 kHz, AC3, 2/0 (L,R) ch, ~192.00 kbps avg | Дубляж, Мосфильм
    Аудио#2: 48 kHz, AC3, 2/0 (L,R) ch, ~192.00 kbps avg | Многоголосый закадровый, Cinema Prestige
    Аудио#3: 48 kHz, AC3, 2/0 (L,R) ch, ~192.00 kbps avg | Многоголосый закадровый, Светла
    Раздача от:
    Скриншоты

    MI
    D:Мои рипыHibernatus.1969.HDRip.dexter_lex.avi
    General
    Complete name : D:Мои рипыHibernatus.1969.HDRip.dexter_lex.avi
    Format : AVI
    Format/Info : Audio Video Interleave
    File size : 1.47 GiB
    Duration : 1h 21mn
    Overall bit rate : 2 567 Kbps
    Writing application : VirtualDubMod 1.5.10.3 | www.virtualdub-fr.org || (build 2550/release)
    Writing library : VirtualDubMod build 2550/release
    Video #0
    ID : 0
    Format : MPEG-4 Visual
    Format profile : Advanced Simple@L5
    Format settings, BVOP : 1
    Format settings, QPel : No
    Format settings, GMC : No warppoints
    Format settings, Matrix : Custom
    Codec ID : XVID
    Codec ID/Hint : XviD
    Duration : 1h 21mn
    Bit rate : 1 972 Kbps
    Width : 720 pixels
    Height : 304 pixels
    Display aspect ratio : 2.35:1
    Frame rate : 24.000 fps
    Color space : YUV
    Chroma subsampling : 4:2:0
    Bit depth : 8 bits
    Scan type : Progressive
    Compression mode : Lossy
    Bits/(Pixel*Frame) : 0.375
    Stream size : 1.13 GiB (77%)
    Writing library : XviD 73
    Audio #1
    ID : 1
    Format : AC-3
    Format/Info : Audio Coding 3
    Format profile : Dolby Digital
    Mode extension : CM (complete main)
    Codec ID : 2000
    Duration : 1h 21mn
    Bit rate mode : Constant
    Bit rate : 192 Kbps
    Channel(s) : 2 channels
    Channel positions : Front: L R
    Sampling rate : 48.0 KHz
    Bit depth : 16 bits
    Compression mode : Lossy
    Stream size : 112 MiB (7%)
    Alignment : Split accross interleaves
    Interleave, duration : 42 ms (1.00 video frame)
    Interleave, preload duration : 500 ms
    Audio #2
    ID : 2
    Format : AC-3
    Format/Info : Audio Coding 3
    Format profile : Dolby Digital
    Mode extension : CM (complete main)
    Codec ID : 2000
    Duration : 1h 21mn
    Bit rate mode : Constant
    Bit rate : 192 Kbps
    Channel(s) : 2 channels
    Channel positions : Front: L R
    Sampling rate : 48.0 KHz
    Bit depth : 16 bits
    Compression mode : Lossy
    Stream size : 112 MiB (7%)
    Alignment : Split accross interleaves
    Interleave, duration : 42 ms (1.00 video frame)
    Interleave, preload duration : 500 ms
    Audio #3
    ID : 3
    Format : AC-3
    Format/Info : Audio Coding 3
    Format profile : Dolby Digital
    Mode extension : CM (complete main)
    Codec ID : 2000
    Duration : 1h 21mn
    Bit rate mode : Constant
    Bit rate : 192 Kbps
    Channel(s) : 2 channels
    Channel positions : Front: L R
    Sampling rate : 48.0 KHz
    Bit depth : 16 bits
    Compression mode : Lossy
    Stream size : 112 MiB (7%)
    Alignment : Split accross interleaves
    Interleave, duration : 42 ms (1.00 video frame)
    Interleave, preload duration : 500 ms


    Размер: 1.47 GB (1576159232 Bytes)

    Замороженный / Hibernatus (1969) HDRip от Youtracker скачать через торрент бесплатно
    загрузка...
    Рейтинг →
     (голосов: 1, оценка 5/5, голосовать можно 1 раз )

    Другие торренты по теме:

  • Замороженный / Hibernatus (1969) WEB-DLRip
  • Глубокая заморозка / Замороженный ужас / Deep Freeze (2003) DVDRip | P скачать через торрент бесплатно
  • Замороженный / Hibernatus скачать через торрент бесплатно
  • Замороженный / Hibernatus (1969) BDRip от HQCLUB
  • Замороженный / Hibernatus (1969) BDRip-AVC от New-Team


    • Комментарии (0):

      Информация

      Информация

        Посетители, находящиеся в группе Гости, не могут оставлять комментарии в данной новости.

        ↓ Меню



        ↓ Опрос

        А Вы добавили сайт в закладки?
        Да
        Не


        Top 10 за месяц (Фильмы)